Ссылка на приватное зеркало всего за 1$. Внимание количество ограничено!!!

OK

1+1

iTunes

мы

OK

1

WEB-DLRip

Джокер

Пифагор

Ведьмак / The Witcher сериал

Лицензия

ПШазам

ОК

Оно 2

iTunes

30
pack

Вам бонус

ВАЖНО

!!Акция!!

Alien_RageХит недели

RePack

Resident Evil 21

ИГРА 18+

pack

RePack

jed

RePack

fifa19

RePack

Assassins Creed: Odyssey

RePack

NEED FOR SPEED™ PAYBACK

4 сезон

9 сезон

Бесстыжие 9 сезон

Все сериалы

все сериалы на PB.wtf

RePack

FAR CRY 5
  

На линии огня / Life on the Line (Дэвид Хэкл) [2015, боевик, драма, BDRip 1080p] [DUB] [iTunes] seedbit.cf

На линии огня через торрент seedbit.cf

Раздают: 4 [ 752 KB/s ] Качают: 1 [ 0 KB/s ]
Размер: 7.2 GB | Добавлен: 8 д. назад | Торрент скачан:63 раза
Скачать  

14-01-2020 16:32 На линии огня Скачать торрент  

На линии огня / Life on the Line
Год выпуска: 2015
Страна: США
Жанр: боевик, драма
Продолжительность: 01:33:30
Перевод: Дублированный [iTunes]
Субтитры: английские
Режиссер: Дэвид Хэкл / David Hackl
В ролях: Джон Траволта, Кейт Босворт, Девон Сава, Джил Беллоуз, Джули Бенц, Райан Роббинс, Тай Олссон, Шэрон Стоун, Риз Александр, Эмили Уллерап и др.
Описание: Бью Гиннер с бригадой проводят работы на линии высоких передач в Техасе. Они работают в десятках метров от земли и имеют дело с проводами, несущими до 500 000 вольт, то есть буквально в считаных сантиметрах от смерти. Брат Бью погиб от удара током и оставил ему на воспитание племянницу Бейли, которая доставляет ему немало проблем. Но намного больше проблем доставит чудовищный шторм, который набирает мощь с каждой минутой…

rating

Качество видео: BDRip 1080p
Формат видео: MKV
Видео: MPEG4-AVC, 1920x1080, 9 200 кб/сек, 25,000 кадра/сек
Аудио 1: AC3, 48kHz, 6ch, 384 кб/сек [DUB]
Аудио 2: DTS Core: 5.1 / 48 kHz / 1509 kbps / 16-bit) (Eng)
Video
ID : 1
Format : AVC
Format/Info : Advanced Video Codec
Format profile : High@L4.1
Format settings, CABAC : Yes
Format settings, ReFrames : 5 frames
Codec ID : V_MPEG4/ISO/AVC
Duration : 1 h 33 min
Bit rate : 9 129 kb/s
Width : 1 920 pixels
Height : 800 pixels
Display aspect ratio : 2.40:1
Frame rate mode : Constant
Frame rate : 25.000 FPS
Color space : YUV
Chroma subsampling : 4:2:0
Bit depth : 8 bits
Scan type : Progressive
Bits/(Pixel*Frame) : 0.238
Stream size : 5.97 GiB (83%)
Writing library : x264 core 148 r2692 64f4e24
Encoding settings : cabac=1 / ref=5 / deblock=1:0:0 / analyse=0x3:0x113 / me=umh / subme=8 / psy=1 / psy_rd=1.00:0.00 / mixed_ref=1 / me_range=16 / chroma_me=1 / trellis=1 / 8x8dct=1 / cqm=0 / deadzone=21,11 / fast_pskip=1 / chroma_qp_offset=-2 / threads=18 / lookahead_threads=3 / sliced_threads=0 / nr=0 / decimate=1 / interlaced=0 / bluray_compat=0 / constrained_intra=0 / bframes=3 / b_pyramid=2 / b_adapt=2 / b_bias=0 / direct=3 / weightb=1 / open_gop=0 / weightp=2 / keyint=250 / keyint_min=25 / scenecut=40 / intra_refresh=0 / rc_lookahead=50 / rc=2pass / mbtree=1 / bitrate=9129 / ratetol=1.0 / qcomp=0.60 / qpmin=0 / qpmax=69 / qpstep=4 / cplxblur=20.0 / qblur=0.5 / ip_ratio=1.40 / aq=1:1.00
Language : English
Default : Yes
Forced : No

Audio #1
ID : 2
Format : AC-3
Format/Info : Audio Coding 3
Mode extension : CM (complete main)
Format settings, Endianness : Big
Codec ID : A_AC3
Duration : 1 h 33 min
Bit rate mode : Constant
Bit rate : 384 kb/s
Channel(s) : 6 channels
Channel positions : Front: L C R, Side: L R, LFE
Sampling rate : 48.0 kHz
Frame rate : 31.250 FPS (1536 spf)
Bit depth : 16 bits
Compression mode : Lossy
Stream size : 257 MiB (3%)
Language : Russian
Default : Yes
Forced : No

Audio #2
ID : 3
Format : DTS
Format/Info : Digital Theater Systems
Mode : 16
Format settings, Endianness : Big
Codec ID : A_DTS
Duration : 1 h 33 min
Bit rate mode : Constant
Bit rate : 1 509 kb/s
Channel(s) : 6 channels
Channel positions : Front: L C R, Side: L R, LFE
Sampling rate : 48.0 kHz
Frame rate : 93.750 FPS (512 spf)
Bit depth : 24 bits
Compression mode : Lossy
Stream size : 1 009 MiB (14%)
Language : English
Default : No
Forced : No

Menu
00:00:00.000 : en:00:00:00.000
00:13:21.680 : en:00:13:21.680
00:30:17.360 : en:00:30:17.360
00:47:34.800 : en:00:47:34.800
01:08:49.760 : en:01:08:49.760
01:24:12.360 : en:01:24:12.360
скриншот  скриншот  скриншот  
seedbit.cf



Скачать На линии огня через торрент https://i5.imageban.ru/out/2020/01/14/6772163ff405ec2709351f65e617c5b2.png Скачать фильм На линии огня через торрент бесплантно в хорошем качестве Описание: Бью Гиннер с бригадой проводят работы на линии высоких передач в Техасе. Они работают в десятках метров от земли и имеют дело с ... 10 10 7
Торрент: Зарегистрирован [2020-01-15 16:39] · скачан: 63 раз
Статус: T временная
Размер: 7.2 GB
Как cкачать? Как скачать На линии огня через торрент | qTorrent

% Раздел Тема Автор DL S | L
Фильмы 2015 [DVDrip, WEB-DLRip, HDrip] [ 1.46 GB ] На линии огня / Life on the Line [2015 HDRip] killermax2013 Скачать
22 | 0

28-11-2019 20:33  

Отключить всю рекламу на сайте


    Дорогой пользователь! Огромная просьба, поблагодарите релизера, оцените раздачу и оставьте свои комментарий, если Вы скачали На линии огня через торрент бесплатно! Внесите свою лепту в развитие PiratBit!
    Комментировать посты могут только пользователи прошедшие не сложную регистрацию
    Показать сообщения:    

    На линии огня через торрент
    Скачать бесплатно На линии огня
    На линии огня скачать торрент
    На линии огня смотреть онлайн
    Cкачать фильм На линии огня бесплатно
    На линии огня скачать торрент в хорошем качестве
    На линии огня смотреть онлайн бесплатно в хорошем качестве


    Вы не можете начинать темы
    Вы не можете отвечать на сообщения
    Вы не можете редактировать свои сообщения
    Вы не можете удалять свои сообщения
    Вы не можете голосовать в опросах
    Вы не можете прикреплять файлы к сообщениям
    Вы можете скачивать файлы