Ссылка на приватное зеркало всего за 1$. Внимание количество ограничено!!!

OK

1+1

iTunes

мы

OK

1

WEB-DLRip

Джокер

Пифагор

Ведьмак / The Witcher сериал

Лицензия

ПШазам

ОК

Оно 2

iTunes

30
pack

Вам бонус

ВАЖНО

!!Акция!!

Alien_RageХит недели

RePack

Resident Evil 21

ИГРА 18+

pack

RePack

jed

RePack

fifa19

RePack

Assassins Creed: Odyssey

RePack

NEED FOR SPEED™ PAYBACK

4 сезон

9 сезон

Бесстыжие 9 сезон

Все сериалы

все сериалы на PB.wtf

RePack

FAR CRY 5
  

Сиротский Бруклин / Motherless Brooklyn (Эдвард Нортон) [2019, драма, криминал, BDRip 1080p] DUB [iTunes] seedbit.cf

Сиротский Бруклин через торрент seedbit.cf

Раздают: 90 [ 13 MB/s ] Качают: 8 [ 6 MB/s ]
Размер: 13.82 GB | Добавлен: 5 д. назад | Торрент скачан:493 раза
Скачать  

14-01-2020 11:17 Сиротский Бруклин Скачать торрент  

Сиротский Бруклин | Motherless Brooklyn
Год выпуска: 2019
Страна: США
Студия: Class 5 Films, Odd Lot Entertainment, Warner Bros. Pictures
Жанр: драма, криминал
Продолжительность: 02:24:21
Перевод: Дублированный | iTunes
Субтитры: Русские (Forced, full), английские

Режиссер: Эдвард Нортон

rating

В ролях: Эдвард Нортон, Гугу Эмбата-Ро, Алек Болдуин, Бобби Каннавале, Уиллем Дефо, Брюс Уиллис, Итан Сапли, Черри Джонс, Даллас Робертс, Джош Пэйс

Описание: Лайонел Эссрог, одинокий частный детектив с синдромом Туретта, решается начать расследование убийства своего наставника и единственного друга Фрэнка Минны. У него есть лишь несколько зацепок и сила разума, одержимого поставленной целью, чтобы распутать клубок тщательно скрываемых тайн, которые сохраняют баланс сил в самом Нью-Йорке. Расследование заводит его в джазовые клубы Гарлема, где рекой течет джин, опасные трущобы Бруклина и, наконец, позолоченные залы политической элиты мегаполиса. Он бросает вызов гангстерам, коррупции и самому опасному человеку в городе, чтобы очистить имя своего друга и спасти женщину, которая может спасти его самого.

Качество: BDRip 1080p
Формат: MKV

Видео: MPEG-4 AVC, 1920x1036, 12.7 Mbit/s, 23.976 fps
Аудио #01: 48 kHz, AC3, 5.1, 384 Kbps | iTunes | RUS |
Аудио #02: 48 kHz, AC3, 5.1, 640 Kbps | Оригинал | ENG |
скриншот  скриншот  скриншот  скриншот  скриншот  

General
Unique ID : 30610263027444435707188935407329048860 (0x1707527CD06AC8A1734B050C8663791C)
Complete name : E:Video111Motherless.Brooklyn.2019.BDRip.1080p.seleZen.mkv
Format : Matroska
Format version : Version 4
File size : 13.8 GiB
Duration : 2 h 24 min
Overall bit rate : 13.7 Mb/s
Movie name : Motherless Brooklyn 2019 from селезень
Encoded date : UTC 2020-01-18 12:35:16
Writing application : mkvmerge v40.0.0 ('Old Town Road + Pony') 64-bit
Writing library : libebml v1.3.9 + libmatroska v1.5.2

Video
ID : 1
Format : AVC
Format/Info : Advanced Video Codec
Format profile : High@L4.1
Format settings : CABAC / 4 Ref Frames
Format settings, CABAC : Yes
Format settings, Reference : 4 frames
Codec ID : V_MPEG4/ISO/AVC
Duration : 2 h 24 min
Bit rate : 12.7 Mb/s
Width : 1 920 pixels
Height : 1 036 pixels
Display aspect ratio : 1.85:1
Frame rate mode : Constant
Frame rate : 23.976 (24000/1001) FPS
Color space : YUV
Chroma subsampling : 4:2:0
Bit depth : 8 bits
Scan type : Progressive
Bits/(Pixel*Frame) : 0.266
Stream size : 12.8 GiB (93%)
Title : CHD
Writing library : x264 core 157 r2867+150 7e91e0e t_mod_Custom_2 [8-bit@all X86_64]
Encoding settings : cabac=1 / ref=4 / deblock=1:-3:-3 / analyse=0x3:0x133 / me=umh / subme=11 / psy=1 / fade_compensate=0.00 / psy_rd=0.90:0.10 / mixed_ref=1 / me_range=64 / chroma_me=1 / trellis=2 / 8x8dct=1 / cqm=0 / deadzone=21,11 / fast_pskip=0 / chroma_qp_offset=-4 / threads=32 / lookahead_threads=5 / sliced_threads=0 / nr=0 / decimate=1 / interlaced=0 / bluray_compat=0 / constrained_intra=0 / fgo=0 / bframes=8 / b_pyramid=2 / b_adapt=2 / b_bias=0 / direct=3 / weightb=1 / open_gop=0 / weightp=2 / keyint=250 / keyint_min=23 / scenecut=40 / intra_refresh=0 / rc_lookahead=60 / rc=crf / mbtree=0 / crf=18.0000 / qcomp=0.70 / qpmin=0:0:0 / qpmax=69:69:69 / qpstep=4 / vbv_maxrate=35000 / vbv_bufsize=35000 / crf_max=0.0 / nal_hrd=none / filler=0 / ip_ratio=1.40 / pb_ratio=1.30 / aq=3:1.00 / aq-sensitivity=10.00 / aq-factor=1.00:1.00:1.00 / aq2=0 / aq3=0
Language : English
Default : Yes
Forced : No

Audio #1
ID : 2
Format : AC-3
Format/Info : Audio Coding 3
Commercial name : Dolby Digital
Codec ID : A_AC3
Duration : 2 h 24 min
Bit rate mode : Constant
Bit rate : 384 kb/s
Channel(s) : 6 channels
Channel layout : L R C LFE Ls Rs
Sampling rate : 48.0 kHz
Frame rate : 31.250 FPS (1536 SPF)
Compression mode : Lossy
Stream size : 396 MiB (3%)
Title : Dub [iTunes]
Language : Russian
Service kind : Complete Main
Default : Yes
Forced : Yes

Audio #2
ID : 3
Format : AC-3
Format/Info : Audio Coding 3
Commercial name : Dolby Digital
Codec ID : A_AC3
Duration : 2 h 24 min
Bit rate mode : Constant
Bit rate : 640 kb/s
Channel(s) : 6 channels
Channel layout : L R C LFE Ls Rs
Sampling rate : 48.0 kHz
Frame rate : 31.250 FPS (1536 SPF)
Compression mode : Lossy
Stream size : 661 MiB (5%)
Title : Original
Language : English
Service kind : Complete Main
Default : No
Forced : No

Text #1
ID : 4
Format : UTF-8
Codec ID : S_TEXT/UTF8
Codec ID/Info : UTF-8 Plain Text
Duration : 2 h 23 min
Bit rate : 4 b/s
Count of elements : 71
Stream size : 4.41 KiB (0%)
Title : Forced
Language : Russian
Default : Yes
Forced : Yes

Text #2
ID : 5
Format : UTF-8
Codec ID : S_TEXT/UTF8
Codec ID/Info : UTF-8 Plain Text
Duration : 2 h 23 min
Bit rate : 135 b/s
Count of elements : 2356
Stream size : 142 KiB (0%)
Title : Full
Language : Russian
Default : No
Forced : No

Text #3
ID : 6
Format : UTF-8
Codec ID : S_TEXT/UTF8
Codec ID/Info : UTF-8 Plain Text
Duration : 2 h 15 min
Bit rate : 80 b/s
Count of elements : 2332
Stream size : 80.4 KiB (0%)
Title : Full
Language : English
Default : No
Forced : No

Text #4
ID : 7
Format : UTF-8
Codec ID : S_TEXT/UTF8
Codec ID/Info : UTF-8 Plain Text
Duration : 2 h 16 min
Bit rate : 84 b/s
Count of elements : 2463
Stream size : 84.7 KiB (0%)
Title : SDH
Language : English
Default : No
Forced : No

Menu
00:00:00.000 : en:Chapter 01
00:09:57.847 : en:Chapter 02
00:19:20.326 : en:Chapter 03
00:29:14.586 : en:Chapter 04
00:38:47.575 : en:Chapter 05
00:46:33.958 : en:Chapter 06
00:54:01.822 : en:Chapter 07
01:02:12.604 : en:Chapter 08
01:08:42.618 : en:Chapter 09
01:17:48.205 : en:Chapter 10
01:26:55.919 : en:Chapter 11
01:34:07.350 : en:Chapter 12
01:41:25.705 : en:Chapter 13
01:50:29.289 : en:Chapter 14
02:00:21.005 : en:Chapter 15
02:07:02.824 : en:Chapter 16
02:17:16.603 : en:Chapter 17

seedbit.cf



Скачать Сиротский Бруклин через торрент https://img16.lostpic.net/2020/01/18/39f8014c79bafb04cf0cdf11ee8b6e23.jpg Скачать фильм Сиротский Бруклин через торрент бесплантно в хорошем качестве Описание: Лайонел Эссрог, одинокий частный детектив с синдромом Туретта, решается начать расследование убийства своего наставника и ... 9.6 10 27
Info! Золотая раздача, скачанное не засчитывается.
Торрент: Зарегистрирован [2020-01-18 13:11] · скачан: 493 раз
Статус: √ проверено
Размер: 13.82 GB
Как cкачать? Как скачать Сиротский Бруклин через торрент | qTorrent

% Раздел Тема Автор DL S | L
Фильмы 2019-2020 [DVDrip, WEB-DLRip, HDrip] (DUB, MVO) [ 2.12 GB ] Сиротский Бруклин / Motherless Brooklyn [2019 BDRip] - Twi7ter Скачать
615 | 86
Фильмы 2019-2020 [DVDrip, WEB-DLRip, HDrip] (DUB, MVO) [ 1.46 GB ] Сиротский Бруклин / Motherless Brooklyn [2019 BDRip] - Twi7ter Скачать
318 | 65
Фильмы 2019-2020 [DVDrip, WEB-DLRip, HDrip] (DUB, MVO) [ 1.45 GB ] Сиротский Бруклин / Motherless Brooklyn [2019 BDRip-AVC от OlLanDGroup] Skandar2019 Скачать
29 | 1
Фильмы [HD 720p, 1080p] (Хороший звук DUB, MVO) [ 5.78 GB ] Сиротский Бруклин / Motherless Brooklyn [2019 BDRip 1080p] killermax2013 Скачать
47 | 6
Фильмы (Blu-ray, BD-Remux, HDDVD) [ 31.62 GB ] Сиротский Бруклин / Motherless Brooklyn [2019 BD Remux 1080p] bober100 Скачать
21 | 7
Фильмы 2019-2020 [DVDrip, WEB-DLRip, HDrip] (DUB, MVO) [ 2.17 GB ] Сиротский Бруклин / Motherless Brooklyn [2019 HDRip-AVC] bober100 Скачать
90 | 5
Фильмы [HD 720p, 1080p] (Хороший звук DUB, MVO) [ 8.34 GB ] Сиротский Бруклин / Motherless Brooklyn [2019 BDRip 720p] bober100 Скачать
57 | 1

28-11-2019 20:33  

Отключить всю рекламу на сайте

21-01-2020 19:00 Сиротский Бруклин Скачать торрент  

Нудятина, фильм ни о чем!seedbit.cf



22-01-2020 10:59 Сиротский Бруклин Скачать торрент  

если seedbit.cf



    Дорогой пользователь! Огромная просьба, поблагодарите релизера, оцените раздачу и оставьте свои комментарий, если Вы скачали Сиротский Бруклин через торрент бесплатно! Внесите свою лепту в развитие PiratBit!
    Комментировать посты могут только пользователи прошедшие не сложную регистрацию
    Показать сообщения:    

    Сиротский Бруклин через торрент
    Скачать бесплатно Сиротский Бруклин
    Сиротский Бруклин скачать торрент
    Сиротский Бруклин смотреть онлайн
    Cкачать фильм Сиротский Бруклин бесплатно
    Сиротский Бруклин скачать торрент в хорошем качестве
    Сиротский Бруклин смотреть онлайн бесплатно в хорошем качестве


    Вы не можете начинать темы
    Вы не можете отвечать на сообщения
    Вы не можете редактировать свои сообщения
    Вы не можете удалять свои сообщения
    Вы не можете голосовать в опросах
    Вы не можете прикреплять файлы к сообщениям
    Вы можете скачивать файлы