Ссылка на приватное зеркало всего за 1$. Внимание количество ограничено!!!

OK

1+1

iTunes

мы

OK

1

WEB-DLRip

Джокер

Пифагор

Ведьмак / The Witcher сериал

iTunes

ПШазам

ОК

Оно 2

iTunes

30
pack

Вам бонус

ВАЖНО

!!Акция!!

Alien_RageХит недели

RePack

Resident Evil 21

ИГРА 18+

pack

RePack

jed

RePack

fifa19

RePack

Assassins Creed: Odyssey

RePack

NEED FOR SPEED™ PAYBACK

4 сезон

9 сезон

Бесстыжие 9 сезон

Все сериалы

все сериалы на PB.wtf

RePack

FAR CRY 5
  

Брачная история / Marriage Story (Ноа Баумбак) [2019, драма, мелодрама, комедия, WEB-DL 1080p] [MVO] (FocusX) seedbit.cf

Брачная история через торрент seedbit.cf

Раздают: 5 [ 0 KB/s ]
Размер: 8.37 GB | Добавлен: 13 д. назад | Торрент скачан:61 раз
Скачать  

13-01-2020 17:57 Брачная история Скачать торрент  

Брачная история / Marriage Story

Страна: США
Жанр: Драма, мелодрама, комедия
Год выпуска: 2019
Продолжительность: 02:16:58
Перевод: Профессиональный (многоголосый закадровый) FocusX (*ex FocusStudio*)

Режиссер: Ноа Баумбак / Noah Baumbach

В ролях: Скарлетт Йоханссон, Адам Драйвер, Мерритт Уивер, Лора Дерн, Рэй Лиотта, Уоллес Шоун, Джули Хэгерти, Алан Алда, Марк О’Брайэн, Кайл Борнхаймер

Описание: Супруги — нью-йоркский театральный режиссёр Чарли и актриса его театра Николь — находятся в процессе развода. Чарли всё устраивало в их браке, но Николь считает, что потеряла себя, и, забрав сына, переезжает к маме в Лос-Анджелес. Там ей уже предложили роль в сериале и посоветовали высококлассную адвокатшу по разводам. Теперь Чарли тоже придётся искать адвоката, а также разрываться между Западным и Восточным побережьями, чтобы продолжать работать и проводить время с сыном.



Тип релиза: WEB-DL 1080p
Контейнер: MKV
Видео: MPEG-4 AVC, 1080p, 1920:1080 (16:9), 7500 kbps, 24.000 fps
Аудио 1: АС3, 6 ch, 48 kHz, 640 kbps, 16 bits Русский
Аудио 2: AC3, 6 ch, 48 kHz, 640 kbps, 16 bits Английский
General
Unique ID : 138482484523659029955361565464340780735 (0x682EC1A193D17388AE5943F3DE40D6BF)
Complete name : E:\Marriage.Story.WEB-DL.1080p.FocusX.mkv
Format : Matroska
Format version : Version 4 / Version 2
File size : 8.37 GiB
Duration : 2h 16mn
Overall bit rate mode : Variable
Overall bit rate : 8 750 Kbps
Movie name : Marriage Story @ FocusX
Encoded date : UTC 2020-01-10 15:26:51
Writing application : mkvmerge v41.0.0 ('Smarra') 64-bit
Writing library : libebml v1.3.9 + libmatroska v1.5.2

Video
ID : 1
Format : AVC
Format/Info : Advanced Video Codec
Format profile : Main@L4
Format settings, CABAC : Yes
Format settings, ReFrames : 3 frames
Codec ID : V_MPEG4/ISO/AVC
Duration : 2h 16mn
Bit rate mode : Variable
Bit rate : 7 500 Kbps
Maximum bit rate : 11.2 Mbps
Width : 1 920 pixels
Height : 1 080 pixels
Display aspect ratio : 16:9
Frame rate mode : Constant
Frame rate : 24.000 fps
Color space : YUV
Chroma subsampling : 4:2:0
Bit depth : 8 bits
Scan type : Progressive
Bits/(Pixel*Frame) : 0.151
Stream size : 6.98 GiB (83%)
Writing library : x264 core 148 r2715 7e75228
Encoding settings : cabac=1 / ref=3 / deblock=1:0:0 / analyse=0x1:0x111 / me=umh / subme=10 / psy=1 / psy_rd=1.00:0.00 / mixed_ref=1 / me_range=24 / chroma_me=1 / trellis=2 / 8x8dct=0 / cqm=0 / deadzone=21,11 / fast_pskip=1 / chroma_qp_offset=-2 / threads=6 / lookahead_threads=1 / sliced_threads=0 / nr=0 / decimate=1 / interlaced=0 / bluray_compat=0 / stitchable=1 / constrained_intra=0 / bframes=2 / b_pyramid=0 / b_adapt=2 / b_bias=0 / direct=3 / weightb=1 / open_gop=0 / weightp=2 / keyint=250 / keyint_min=24 / scenecut=0 / intra_refresh=0 / rc_lookahead=48 / rc=2pass / mbtree=1 / bitrate=7500 / ratetol=1.0 / qcomp=0.50 / qpmin=6 / qpmax=51 / qpstep=4 / cplxblur=20.0 / qblur=0.5 / vbv_maxrate=11250 / vbv_bufsize=15000 / nal_hrd=vbr / filler=0 / ip_ratio=1.40 / aq=1:1.00
Default : Yes
Forced : No

Audio #1
ID : 2
Format : AC-3
Format/Info : Audio Coding 3
Mode extension : CM (complete main)
Format settings, Endianness : Big
Codec ID : A_AC3
Duration : 2h 16mn
Bit rate mode : Constant
Bit rate : 640 Kbps
Channel(s) : 6 channels
Channel positions : Front: L C R, Side: L R, LFE
Sampling rate : 48.0 KHz
Compression mode : Lossy
Stream size : 627 MiB (7%)
Title : MVO FocusX
Language : Russian
Default : Yes
Forced : No

Audio #2
ID : 3
Format : AC-3
Format/Info : Audio Coding 3
Mode extension : CM (complete main)
Format settings, Endianness : Big
Codec ID : A_AC3
Duration : 2h 16mn
Bit rate mode : Constant
Bit rate : 640 Kbps
Channel(s) : 6 channels
Channel positions : Front: L C R, Side: L R, LFE
Sampling rate : 48.0 KHz
Compression mode : Lossy
Stream size : 627 MiB (7%)
Language : English
Default : No
Forced : No
скриншот  скриншот  скриншот  
seedbit.cf



Скачать Брачная история через торрент http://i111.fastpic.ru/big/2019/1221/db/3e949a18c0d2781e9cd6f6e49bf942db.jpg Скачать фильм Брачная история через торрент бесплантно в хорошем качестве Описание: Супруги — нью-йоркский театральный режиссёр Чарли и актриса его театра Николь — находятся в процессе развода. Чарли всё ... 10 10 2
Торрент: Зарегистрирован [2020-01-13 17:57] · скачан: 61 раз
Статус: √ проверено
Размер: 8.37 GB
Как cкачать? Как скачать Брачная история через торрент | qTorrent

% Раздел Тема Автор DL S | L
Фильмы 2019-2020 [DVDrip, WEB-DLRip, HDrip] (DUB, MVO) [ 1.46 GB ] Брачная история / Marriage Story [2019 WEB-DLRip] MVO [Jaskier] bober100 Скачать
13 | 1
Фильмы 2019-2020 [DVDrip, WEB-DLRip, HDrip] (DUB, MVO) [ 2.18 GB ] Брачная история / Marriage Story [2019 WEB-DLRip] MVO [Jaskier] bober100 Скачать
4 | 0
Фильмы (WEB-DL 720p, 1080p) [ 8.13 GB ] Брачная история / Marriage Story [2019 WEB-DL 1080p] MVO [Jaskier] bober100 Скачать
12 | 0

28-11-2019 20:33  

Отключить всю рекламу на сайте

    Дорогой пользователь! Огромная просьба, поблагодарите релизера, оцените раздачу и оставьте свои комментарий, если Вы скачали Брачная история через торрент бесплатно! Внесите свою лепту в развитие PiratBit!
    Комментировать посты могут только пользователи прошедшие не сложную регистрацию
    Показать сообщения:    

    Брачная история через торрент
    Скачать бесплатно Брачная история
    Брачная история скачать торрент
    Брачная история смотреть онлайн
    Cкачать фильм Брачная история бесплатно
    Брачная история скачать торрент в хорошем качестве
    Брачная история смотреть онлайн бесплатно в хорошем качестве


    Вы не можете начинать темы
    Вы не можете отвечать на сообщения
    Вы не можете редактировать свои сообщения
    Вы не можете удалять свои сообщения
    Вы не можете голосовать в опросах
    Вы не можете прикреплять файлы к сообщениям
    Вы можете скачивать файлы