Ссылка на приватное зеркало всего за 1$. Внимание количество ограничено!!!

OK

1+1

iTunes

мы

OK

1

WEB-DLRip

Джокер

Пифагор

Ведьмак / The Witcher сериал

Лицензия

ПШазам

ОК

Оно 2

iTunes

30
pack

Вам бонус

ВАЖНО

!!Акция!!

Alien_RageХит недели

RePack

Resident Evil 21

ИГРА 18+

pack

RePack

jed

RePack

fifa19

RePack

Assassins Creed: Odyssey

RePack

NEED FOR SPEED™ PAYBACK

4 сезон

9 сезон

Бесстыжие 9 сезон

Все сериалы

все сериалы на PB.wtf

RePack

FAR CRY 5
  

Про Веру / Сезон: 1 / Серии: 1-8 из 8 (Евгений Семёнов) [2020, Драма, HDTVRip] seedbit.cf

Про Веру через торрент seedbit.cf

Раздают: 3 [ 13 KB/s ]
Размер: 4.9 GB | Добавлен: 6 д. назад | Торрент скачан:18 раз
Скачать  

13-01-2020 17:26 Про Веру Скачать торрент  

Про Веру
Год выпуска: 2020
Страна: Россия
Выпущено: Россия, Продюсерский центр «Среда»
Жанр: Драма
Продолжительность: ~ 00:53:00
Субтитры: отсутствуют

Режиссер: Евгений Семёнов



В ролях: Вера Панфилова, Даниил Страхов, Владислав Новицкий, Екатерина Дубакина, Кристина Исайкина, Игорь Скляр, Денис Синявский, Артур Ваха, Александр Кудренко, Евгений Антропов, Ирина Горячева, Ольга Белинская, Юлия Силаева, Мария Антонова

Описание: Одинокая девушка Вера живёт учёбой и заботой о шестнадцатилетнем брате. Трудному подростку Вера старается заменить и мать, и отца, которых нет уже несколько лет. Как подарок судьбы в её жизнь врывается взрослый мужчина, успешный бизнесмен-строитель. Страсть и высокий романтический полёт оборачиваются для Веры трагедией: бизнесмен Максим проворачивает вокруг девушки масштабную финансовую аферу, после чего она становится главным фигурантом уголовного дела.

Качество: HDTVRip
Формат: AVI

Видео: 720x400 (1.80:1), 25 fps, XviD ~1600 kbps avg, 0.222 bit/pixel
Аудио: 48.0 kHz, AC3 Dolby Digital, 2/0 (L,R) ch, ~ 192 kbps
скриншот  скриншот  скриншот  скриншот  

Общее
Полное имя : D:Pro Veru.HDTVRip.GeneralFilm1.Pro Veru.HDTVRip.GeneralFilm.avi
Формат : AVI
Формат/Информация : Audio Video Interleave
Размер файла : 685 Мбайт
Продолжительность : 53 м.
Общий поток : 1800 Кбит/сек

Видео
Идентификатор : 0
Формат : MPEG-4 Visual
Профиль формата : Advanced Simple@L5
Параметр BVOP формата : 1
Параметр QPel формата : Нет
Параметр GMC формата : Без точки перехода
Параметр матрицы формата : Выборочная
Идентификатор кодека : XVID
Идентификатор кодека/Подсказка : XviD
Продолжительность : 53 м.
Битрейт : 1597 Кбит/сек
Ширина : 720 пикселей
Высота : 400 пикселей
Соотношение сторон : 16:9
Частота кадров : 25,000 кадров/сек
Цветовое пространство : YUV
Субдискретизация насыщенности : 4:2:0
Битовая глубина : 8 бит
Тип развёртки : Прогрессивная
Метод сжатия : С потерями
Бит/(Пиксели*Кадры) : 0.222
Размер потока : 608 Мбайт (89%)
Библиотека кодирования : XviD 1.2.1 (UTC 2008-12-04)

Аудио
Идентификатор : 1
Формат : AC-3
Формат/Информация : Audio Coding 3
Расширение режима : CM (complete main)
Параметр Endianness формата : Big
Идентификатор кодека : 2000
Продолжительность : 53 м.
Вид битрейта : Постоянный
Битрейт : 192 Кбит/сек
Каналы : 2 канала
Расположение каналов : Front: L R
Частота : 48,0 КГц
Битовая глубина : 16 бит
Метод сжатия : С потерями
Размер потока : 73,1 Мбайт (11%)
Выравнивание : Соединение по промежуткам
Продолжительность промежутка : 32 мс. (0,80 видеокадр)

Внимание! Раздача ведётся путём добавления новых серий; при каждом добавлении создаётся новый торрент. Чтобы начать докачку новой серии, пользователям необходимо сделать следующее:
(1) остановить скачивание,
(2) удалить старый торрент у себя из клиента (старые серии удалять не надо),
(3) скачать новый торрент и запустить его у себя в клиенте вместо старого, при этом указать клиенту путь в старую папку куда и должно происходить скачивание новых серий.

Ваш клиент при этом должен произвести хеширование (проверку) старой папки (если не производит сам - помогите ему сделать это), и будет докачивать только те серии которых у вас ещё нет. Старые серии при этом не удаляются, а продолжают раздаваться!

Eсли вы уже удалили старые серии, то предотвратить повторную закачку старых серий можно, отжав галочку в соответсвующих местах при запуске нового торрента. По возможности, желательно не удалять старые серии как можно дольше чтобы релизёр не столько продолжал раздавать старые серии, а смог сконцентрироваться на новых.
seedbit.cf



Скачать Про Веру через торрент https://img16.lostpic.net/2020/01/13/c8ef616d0105bd30d0475c294af4d84b.jpg Скачать фильм Про Веру через торрент бесплантно в хорошем качестве Описание: Одинокая девушка Вера живёт учёбой и заботой о шестнадцатилетнем брате. Трудному подростку Вера старается заменить и мать, и ... 10 10 4
Торрент: Зарегистрирован [2020-01-17 06:16] · скачан: 18 раз
Статус: √ проверено
Размер: 4.9 GB
Как cкачать? Как скачать Про Веру через торрент | qTorrent

% Раздел Тема Автор DL S | L
Наши сериалы [ 14.93 GB ] Про Веру / Сезон: 1 / Серии: 1-8 из 8 [2020 WEB-DL 1080p] bober100 Скачать
3 | 1
Наши сериалы [ 5.07 GB ] Про Веру / Сезон: 1 / Серии: 1-8 из 8 [2020 WEB-DLRip] bober100 Скачать
5 | 0
Наши сериалы [ 10.06 GB ] Про Веру / Сезон: 1 / Серии: 1-8 из 8 [2020 HDTVRip 720p] bober100 Скачать
4 | 0
Наши сериалы [ 5.97 GB ] Про Веру / Сезон: 1 / Серии: 1-8 из 8 [2020 HDTVRip-AVC] bober100 Скачать
2 | 1
Наши сериалы [ 18.34 GB ] Про Веру / Сезон: 1 / Серии: 1-8 из 8 [2020 HDTV 1080i] bober100 Скачать
5 | 1
Наши сериалы [ 4.69 GB ] Про Веру / Сезон: 1 / Серии: 1-8 из 8 [2020 SATRip] bober100 Скачать
3 | 1


Последний раз редактировалось: bober100 (2020-01-17 06:16), всего редактировалось 4 раз(а)

28-11-2019 20:33  

Отключить всю рекламу на сайте

13-01-2020 17:58 Про Веру Скачать торрент  

ну на куйseedbit.cf



    Дорогой пользователь! Огромная просьба, поблагодарите релизера, оцените раздачу и оставьте свои комментарий, если Вы скачали Про Веру через торрент бесплатно! Внесите свою лепту в развитие PiratBit!
    Комментировать посты могут только пользователи прошедшие не сложную регистрацию
    Показать сообщения:    

    Про Веру через торрент
    Скачать бесплатно Про Веру
    Про Веру скачать торрент
    Про Веру смотреть онлайн
    Cкачать фильм Про Веру бесплатно
    Про Веру скачать торрент в хорошем качестве
    Про Веру смотреть онлайн бесплатно в хорошем качестве


    Вы не можете начинать темы
    Вы не можете отвечать на сообщения
    Вы не можете редактировать свои сообщения
    Вы не можете удалять свои сообщения
    Вы не можете голосовать в опросах
    Вы не можете прикреплять файлы к сообщениям
    Вы можете скачивать файлы