Ссылка на приватное зеркало всего за 1$. Внимание количество ограничено!!!

OK

1+1

iTunes

мы

OK

1

WEB-DLRip

Джокер

Пифагор

Ведьмак / The Witcher сериал

Лицензия

ПШазам

ОК

Оно 2

iTunes

30
pack

Вам бонус

ВАЖНО

!!Акция!!

Alien_RageХит недели

RePack

Resident Evil 21

ИГРА 18+

pack

RePack

jed

!!Акция!!

Alien_Rage

RePack

fifa19

RePack

Assassins Creed: Odyssey

RePack

NEED FOR SPEED™ PAYBACK

4 сезон

9 сезон

Бесстыжие 9 сезон

Все сериалы

все сериалы на PB.wtf

RePack

FAR CRY 5
  

Дом с прислугой / Servant / Сезон: 1 / Серии: 1-9 из 10 (М. Найт Шьямалан, Дэниэл Сакхайм, Лиза Брюльманн) [2019, Ужасы, триллер, драма, WEB-DLRip] [MVO] (AlexFilm) seedbit.cf

Дом с прислугой через торрент seedbit.cf

Размер: 4.21 GB | Добавлен: 7 д. назад | Торрент скачан:0 раз
Скачать  

13-01-2020 11:52 Дом с прислугой Скачать торрент  

Дом с прислугой / Прислуга / Servant Год выпуска: 2019
Страна: США / Blinding Edge Pictures, Escape Artists
Жанр: Ужасы, триллер, драма
Продолжительность: ~00:33:00 серия

Перевод: Профессиональный (многоголосый, закадровый) AlexFilm

Режиссёр: М. Найт Шьямалан, Дэниэл Сакхайм, Лиза Брюльманн

В ролях: Лорен Эмброуз, Тоби Кеббелл, Нелл Тайгер Фри, Руперт Гринт, Филлип Джеймс Браннон, Джеффри Моуэри и др.

Описание: У супругов Тёрнер случилась беда — они потеряли трёхмесячного малыша. Дороти никак не может оправиться от трагедии, поэтому продолжает нянчить куклу и даже нанимает для этих целей няню, девушку Лиенн. А та как будто не замечает странностей и обращается с куклой как с настоящим младенцем.



Раздача от

Сэмпл: http://sendfile.su/1532879

Качество: WEB-DLRip
Формат: AVI
Видео: 704x352 (2.00:1), 23.976 fps, XviD build 73 ~1700 kbps avg, 0.29 bit/pixel
Аудио #1: 48 kHz, AC3 Dolby Digital, 2/0 (L,R) ch, ~192.00 kbps avg | RUS
Аудио #2: 48 kHz, AC3 Dolby Digital, 2/0 (L,R) ch, ~192.00 kbps avg | ENG
Субтитры: Русские (Forced, Full), английские (SDH) - отдельно

Реклама: Отсутствует
01. Reborn / Реборн
02. Wood / Дерево
03. Eel / Угорь
04. Bear / Медвежонок
05. Cricket / Сверчок
06. Rain / Дождь
07. Haggis / Хаггис
08. Boba / Боба
09. Jericho / Джерико
General
Complete name : D:\OlLanDGroup\Servant.S01.WEB-DLRip.NewStudio.RUS.ENG.OlLanDGroup\Servant.S01.E01.WEB-DLRip.AlexFilm.RUS.ENG.OlLanDGroup.avi
Format : AVI
Format/Info : Audio Video Interleave
File size : 525 MiB
Duration : 34 min 58 s
Overall bit rate : 2 099 kb/s
Writing application : VirtualDubMod 1.5.10.2 (build 2540/release)
Writing library : VirtualDubMod build 2540/release

Video
ID : 0
Format : MPEG-4 Visual
Format profile : Advanced Simple@L5
Format settings : BVOP1
Format settings, BVOP : 1
Format settings, QPel : No
Format settings, GMC : No warppoints
Format settings, Matrix : Default (MPEG)
Codec ID : XVID
Codec ID/Hint : XviD
Duration : 34 min 58 s
Bit rate : 1 701 kb/s
Width : 704 pixels
Height : 352 pixels
Display aspect ratio : 2.000
Frame rate : 23.976 (24000/1001) FPS
Color space : YUV
Chroma subsampling : 4:2:0
Bit depth : 8 bits
Scan type : Progressive
Compression mode : Lossy
Bits/(Pixel*Frame) : 0.286
Stream size : 426 MiB (81%)
Writing library : XviD 73

Audio #1
ID : 1
Format : AC-3
Format/Info : Audio Coding 3
Commercial name : Dolby Digital
Codec ID : 2000
Duration : 34 min 58 s
Bit rate mode : Constant
Bit rate : 192 kb/s
Channel(s) : 2 channels
Channel layout : L R
Sampling rate : 48.0 kHz
Frame rate : 31.250 FPS (1536 SPF)
Bit depth : 16 bits
Compression mode : Lossy
Stream size : 48.0 MiB (9%)
Alignment : Split accross interleaves
Interleave, duration : 42 ms (1.00 video frame)
Interleave, preload duration : 500 ms
Service kind : Complete Main

Audio #2
ID : 2
Format : AC-3
Format/Info : Audio Coding 3
Commercial name : Dolby Digital
Codec ID : 2000
Duration : 34 min 58 s
Bit rate mode : Constant
Bit rate : 192 kb/s
Channel(s) : 2 channels
Channel layout : L R
Sampling rate : 48.0 kHz
Frame rate : 31.250 FPS (1536 SPF)
Bit depth : 16 bits
Compression mode : Lossy
Stream size : 48.0 MiB (9%)
Alignment : Split accross interleaves
Interleave, duration : 42 ms (1.00 video frame)
Interleave, preload duration : 500 ms
Service kind : Complete Main
скриншот  скриншот  скриншот  
seedbit.cf



Скачать Дом с прислугой через торрент https://b.radikal.ru/b08/1912/12/c361efd37ce3.png Скачать фильм Дом с прислугой через торрент бесплантно в хорошем качестве Описание: У супругов Тёрнер случилась беда — они потеряли трёхмесячного малыша. Дороти никак не может оправиться от трагедии, поэтому ... 5.5 10 2
Торрент: Зарегистрирован [2020-01-13 11:52] · скачан: 0 раз
Статус: ∑ поглощено
Размер: 4.21 GB
Как cкачать? Как скачать Дом с прислугой через торрент | qTorrent

% Раздел Тема Автор DL S | L
Зарубежные сериалы [ 5.38 GB ] Дом с прислугой / Servant / Сезон: 1 / Серии: 1-9 из 10 [2019 WEB-DLRip] [DVO] killermax2013 Скачать
1 | 0
Зарубежные сериалы [ 8.4 GB ] Дом с прислугой / Servant / Сезон: 1 / Серии: 1-9 из 10 [2019 WEB-DL 720p] [DVO] killermax2013 Скачать
1 | 0

28-11-2019 20:33  

Отключить всю рекламу на сайте

    Дорогой пользователь! Огромная просьба, поблагодарите релизера, оцените раздачу и оставьте свои комментарий, если Вы скачали Дом с прислугой через торрент бесплатно! Внесите свою лепту в развитие PiratBit!
    Комментировать посты могут только пользователи прошедшие не сложную регистрацию
    Показать сообщения:    

    Дом с прислугой через торрент
    Скачать бесплатно Дом с прислугой
    Дом с прислугой скачать торрент
    Дом с прислугой смотреть онлайн
    Cкачать фильм Дом с прислугой бесплатно
    Дом с прислугой скачать торрент в хорошем качестве
    Дом с прислугой смотреть онлайн бесплатно в хорошем качестве


    Вы можете начинать темы
    Вы можете отвечать на сообщения
    Вы не можете редактировать свои сообщения
    Вы не можете удалять свои сообщения
    Вы не можете голосовать в опросах
    Вы не можете прикреплять файлы к сообщениям
    Вы можете скачивать файлы