Ссылка на приватное зеркало всего за 1$. Внимание количество ограничено!!!

OK

1+1

iTunes

мы

OK

1

WEB-DLRip

Джокер

Пифагор

Ведьмак / The Witcher сериал

Лицензия

ПШазам

ОК

Оно 2

iTunes

30
pack

Вам бонус

ВАЖНО

!!Акция!!

Alien_RageХит недели

RePack

Resident Evil 21

ИГРА 18+

pack

RePack

jed

RePack

fifa19

RePack

Assassins Creed: Odyssey

RePack

NEED FOR SPEED™ PAYBACK

4 сезон

9 сезон

Бесстыжие 9 сезон

Все сериалы

все сериалы на PB.wtf

RePack

FAR CRY 5
  

Трое мужчин и младенец в люльке / Trois Hommes et un Couffin (Колин Серро) [1985, комедия, BDRip 720p by msltel] DUB seedbit.cf

Трое мужчин и младенец в люльке через торрент seedbit.cf

Раздают: 1 [ 0 KB/s ]
Размер: 4.75 GB | Добавлен: 10 д. назад | Торрент скачан:9 раз
Скачать  

13-01-2020 09:59 Трое мужчин и младенец в люльке Скачать торрент  

Название: Трое мужчин и младенец в люльке
Оригинальное название: Trois Hommes et un Couffin
Год выпуска: 1985
Страна: Франция
Жанр: комедия
Продолжительность: 01:45:53
Перевод: дублированный

Режиссер: Колин Серро
В ролях: Ролан Жиро, Мишель Бужена, Андре Дюссолье, Филиппин Леруа-Больё, Доминик Лаванан, Марта Вильялонга, Анник Алан, Жозиан Комелла, Гвендолин Мурле, Дженнифер Море

О фильме: Комедия про трёх холостяков, снимающих роскошные апартаменты и ведущих свободный образ жизни. Однажды в их доме появляется женщина, с которой у одного из них была интрижка, и оставляет на попечение младенца. Остальной сюжет крутится вокруг хлопот трёх совершенно неумелых в обращении с маленькими детьми мужчин плюс вмешательство полиции, пакет с героином и тому подобные сложности. Конечно же, в конце фильма все трое влюбляются в ребёнка...



Качество: BDRip 720p
Формат: MKV
Видео: MPEG-4 AVC, 5970 Kбит/с, 1280x718, 24 Кадр/с
Аудио 1: русский, AC3, 256 kbps, 2 ch, 48 kHz [дублированный с добавлением MVO]
Аудио 2: французский, AC3, 192 kbps, 2 ch, 48 kHz [оригинал]
Главы/чаптеры
Общее
Уникальный идентификатор : 219302183263385779797346829726123222825 (0xA4FC106CE5C7C8749AB3411A2B52E729)
Полное имя : D:\Video\Трое мужчин и младенец в люльке.1985.BDRip 720p by msltel.mkv
Формат : Matroska
Версия формата : Version 4
Размер файла : 4,75 Гбайт
Продолжительность : 1 ч. 45 м.
Общий поток : 6420 Кбит/сек
Название фильма : Rip by msltel
Дата кодирования : UTC 2020-01-13 02:40:42
Программа кодирования : mkvmerge v8.2.0 ('World of Adventure') 64bit
Библиотека кодирования : libebml v1.3.1 + libmatroska v1.4.2

Видео
Идентификатор : 1
Формат : AVC
Формат/Информация : Advanced Video Codec
Профиль формата : High@L4.1
Настройки формата : CABAC / 9 Ref Frames
Параметр CABAC формата : Да
Параметр RefFrames формата : 9 кадров
Идентификатор кодека : V_MPEG4/ISO/AVC
Продолжительность : 1 ч. 45 м.
Битрейт : 5970 Кбит/сек
Ширина : 1280 пикселей
Высота : 718 пикселей
Соотношение сторон : 16:9
Режим частоты кадров : Постоянный
Частота кадров : 24,000 кадра/сек
Цветовое пространство : YUV
Субдискретизация насыщенности : 4:2:0
Битовая глубина : 8 бит
Тип развёртки : Прогрессивная
Бит/(Пиксели*Кадры) : 0.271
Размер потока : 4,42 Гбайт (93%)
Библиотека кодирования : x264 core 157 r2935 545de2f
Настройки программы : cabac=1 / ref=9 / deblock=1:-2:-2 / analyse=0x3:0x113 / me=umh / subme=11 / psy=1 / psy_rd=1.00:0.15 / mixed_ref=1 / me_range=32 / chroma_me=1 / trellis=2 / 8x8dct=1 / cqm=0 / deadzone=21,11 / fast_pskip=0 / chroma_qp_offset=-3 / threads=6 / lookahead_threads=1 / sliced_threads=0 / nr=0 / decimate=1 / interlaced=0 / bluray_compat=0 / constrained_intra=0 / bframes=6 / b_pyramid=2 / b_adapt=2 / b_bias=0 / direct=1 / weightb=1 / open_gop=0 / weightp=2 / keyint=230 / keyint_min=23 / scenecut=40 / intra_refresh=0 / rc_lookahead=40 / rc=crf / mbtree=0 / crf=19.0 / qcomp=0.60 / qpmin=0 / qpmax=69 / qpstep=4 / vbv_maxrate=50000 / vbv_bufsize=62500 / crf_max=0.0 / nal_hrd=none / filler=0 / ip_ratio=1.40 / pb_ratio=1.30 / aq=1:1.00
Язык : French
Default : Да
Forced : Нет

Аудио #1
Идентификатор : 2
Формат : AC-3
Формат/Информация : Audio Coding 3
Коммерческое название : Dolby Digital
Идентификатор кодека : A_AC3
Продолжительность : 1 ч. 45 м.
Вид битрейта : Постоянный
Битрейт : 256 Кбит/сек
Каналы : 2 канала
ChannelLayout : L R
Частота : 48,0 КГц
Частота кадров : 31,250 кадров/сек (1536 SPF)
Метод сжатия : С потерями
Размер потока : 194 Мбайт (4%)
Заголовок : DUB с добавлением MVO
Язык : Russian
ServiceKind/String : Complete Main
Default : Да
Forced : Нет

Аудио #2
Идентификатор : 3
Формат : AC-3
Формат/Информация : Audio Coding 3
Коммерческое название : Dolby Digital
Идентификатор кодека : A_AC3
Продолжительность : 1 ч. 45 м.
Вид битрейта : Постоянный
Битрейт : 192 Кбит/сек
Каналы : 2 канала
ChannelLayout : L R
Частота : 48,0 КГц
Частота кадров : 31,250 кадров/сек (1536 SPF)
Метод сжатия : С потерями
Размер потока : 145 Мбайт (3%)
Заголовок : original
Язык : French
ServiceKind/String : Complete Main
Default : Нет
Forced : Нет

Меню
00:00:00.000 : :Chapitre 01
00:09:14.542 : :Chapitre 02
00:17:36.917 : :Chapitre 03
00:27:05.708 : :Chapitre 04
00:35:18.042 : :Chapitre 05
00:43:53.750 : :Chapitre 06
00:53:03.208 : :Chapitre 07
01:02:59.625 : :Chapitre 08
01:11:20.417 : :Chapitre 09
01:19:05.917 : :Chapitre 10
01:28:48.292 : :Chapitre 11
01:35:52.583 : :Chapitre 12
seedbit.cf



Скачать Трое мужчин и младенец в люльке через торрент https://d.radikal.ru/d43/2001/fd/ee664d76cd04.jpg Скачать фильм Трое мужчин и младенец в люльке через торрент бесплантно в хорошем качестве О фильме: Комедия про трёх холостяков, снимающих роскошные апартаменты и ведущих свободный образ жизни. Однажды в их доме появляется ... 10 10 1
Торрент: Зарегистрирован [2020-01-13 09:59] · скачан: 9 раз
Статус: √ проверено
Размер: 4.75 GB
Как cкачать? Как скачать Трое мужчин и младенец в люльке через торрент | qTorrent

% Раздел Тема Автор DL S | L
Фильмы [HD 720p, 1080p] (Хороший звук DUB, MVO) [ 12.32 GB ] Трое мужчин и младенец в люльке / Trois Hommes et un Couffin [1985 BDRip 1080p by msltel] DUB msltel Скачать
2 | 0
Фильмы до 2000 г. [ 2.31 GB ] Трое мужчин и младенец в люльке / Trois Hommes et un Couffin [1985 BDRip-AVC by msltel] DUB msltel Скачать
3 | 0

28-11-2019 20:33  

Отключить всю рекламу на сайте

    Дорогой пользователь! Огромная просьба, поблагодарите релизера, оцените раздачу и оставьте свои комментарий, если Вы скачали Трое мужчин и младенец в люльке через торрент бесплатно! Внесите свою лепту в развитие PiratBit!
    Комментировать посты могут только пользователи прошедшие не сложную регистрацию
    Показать сообщения:    

    Трое мужчин и младенец в люльке через торрент
    Скачать бесплатно Трое мужчин и младенец в люльке
    Трое мужчин и младенец в люльке скачать торрент
    Трое мужчин и младенец в люльке смотреть онлайн
    Cкачать фильм Трое мужчин и младенец в люльке бесплатно
    Трое мужчин и младенец в люльке скачать торрент в хорошем качестве
    Трое мужчин и младенец в люльке смотреть онлайн бесплатно в хорошем качестве


    Вы не можете начинать темы
    Вы не можете отвечать на сообщения
    Вы не можете редактировать свои сообщения
    Вы не можете удалять свои сообщения
    Вы не можете голосовать в опросах
    Вы не можете прикреплять файлы к сообщениям
    Вы можете скачивать файлы