Ссылка на приватное зеркало всего за 1$. Внимание количество ограничено!!!

OK

1+1

iTunes

мы

OK

1

WEB-DLRip

Джокер

Пифагор

Ведьмак / The Witcher сериал

Лицензия

ПШазам

ОК

Оно 2

iTunes

30
pack

Вам бонус

ВАЖНО

!!Акция!!

Alien_RageХит недели

RePack

Resident Evil 21

ИГРА 18+

pack

RePack

jed

RePack

fifa19

RePack

Assassins Creed: Odyssey

RePack

NEED FOR SPEED™ PAYBACK

4 сезон

9 сезон

Бесстыжие 9 сезон

Все сериалы

все сериалы на PB.wtf

RePack

FAR CRY 5
  

Врата воинов 3Д / The Warriors Gate 3D (Матиас Хёне) [2016, фэнтези, боевик, комедия, приключения, BDRip 1080p, (Half OverUnder)] MVO [@MUZOBOZ@] seedbit.cf

Врата воинов 3Д через торрент seedbit.cf

Раздают: 5 [ 725 KB/s ]
Размер: 12.47 GB | Добавлен: 12 д. назад | Торрент скачан:13 раз
Скачать  

11-01-2020 16:33 Врата воинов 3Д Скачать торрент  

Врата воинов 3Д
The Warriors Gate 3D

Год выпуска: 2016
Страна: Франция, Китай, Канада
Жанр: фэнтези, боевик, комедия, приключения
Продолжительность: 01:49:46
Перевод: Любительский (многоголосый) | @MUZOBOZ@
Субтитры: Вшитые (softsub) и Внешние (UTF-8) (SRT) Русские Форсированные [Ash61] (включены по умолчанию)

Режиссер: Матиас Хёне

rating

В ролях: Юрайа Шелтон (Джек), Марк Чао (Джао), Ни Ни (Су Линь), Дэйв Батиста (Арун), Сиенна Гиллори (мама Джека), Рон Смуренбург (Чёрный Рыцарь), Френсис Нг (волшебник), Мин Си (нимфа 1), Кара Хуэй (горный дух)

Описание: В компьютерных играх старшеклассник Джек Бронсон — непобедимый герой, способный дать отпор любому врагу. Но в реальности он предпочитает всегда избегать врагов, поэтому и считает себя трусом. Однажды хозяин местной антикварной лавки, где Джек подрабатывает после школы, дарит парню древний китайский сундук, из которого посреди ночи вылезают двое сказочных гостей: принцесса Сулинь и её защитник — имперский страж Чжоу. Принцессе нужно убежище от врагов, которые отравили её отца и захватили престол. Защитить принцессу старшеклассник не успевает, поэтому отправляется вслед за девушкой и её похитителями в сказочный древний Китай.

Качество: BDRip 1080p
Формат: MKV

Видео: AVC / 1920х1080p / 23,976 fps / 15.0 Mbps
Аудио#1: Русский / AC3 / 48 KHz / 5.1 ch / 640 Kbps (MVO - @MUZOBOZ@) (перемонтаж из стереодороги Koshara в 5.1)
Аудио#2: Английский / AC3 / 48 KHz / 5.1 ch / 640 Kbps (Original - BD 3D)
Формат 3D: Half OverUnder / Вертикальная анаморфная стереопара
Порядок ракурсов: левый ракурс первый
скриншот  скриншот  скриншот  скриншот  

General
Unique ID : 171761985848343957116964803521157068359 (0x813827BA38DDA013A114B8A7610CF647)
Complete name : D:TheWarriorsGate(2016)3D-hOU(Ash61)MVOTheWarriorsGate(2016)3D-hOU(Ash61)MVO.mkv
Format : Matroska
Format version : Version 2
File size : 12.5 GiB
Duration : 1 h 49 min
Overall bit rate : 16.3 Mb/s
Movie name : Врата воинов / The Warriors Gate (Enter the Warriors Gate) (2016) in 3D
Encoded date : UTC 2020-01-10 15:36:15
Writing application : mkvmerge v5.8.0 ('No Sleep / Pillow') built on Sep 2 2012 15:37:04
Writing library : libebml v1.2.3 + libmatroska v1.3.0

Video
ID : 1
Format : AVC
Format/Info : Advanced Video Codec
Format profile : High@L4.1
Format settings : CABAC / 4 Ref Frames
Format settings, CABAC : Yes
Format settings, Reference : 4 frames
Codec ID : V_MPEG4/ISO/AVC
Duration : 1 h 49 min
Bit rate : 15.0 Mb/s
Width : 1 920 pixels
Height : 1 080 pixels
Display aspect ratio : 16:9
Frame rate mode : Constant
Frame rate : 23.976 (24000/1001) FPS
Color space : YUV
Chroma subsampling : 4:2:0
Bit depth : 8 bits
Scan type : Progressive
Bits/(Pixel*Frame) : 0.302
Stream size : 11.2 GiB (90%)
Title : BDRip by Ash61
Writing library : x264 core 146 r2538 121396c
Encoding settings : cabac=1 / ref=4 / deblock=1:-3:-3 / analyse=0x3:0x113 / me=umh / subme=10 / psy=1 / psy_rd=1.00:0.00 / mixed_ref=1 / me_range=32 / chroma_me=1 / trellis=2 / 8x8dct=1 / cqm=0 / deadzone=21,11 / fast_pskip=0 / chroma_qp_offset=-2 / threads=12 / lookahead_threads=2 / sliced_threads=0 / nr=0 / decimate=0 / interlaced=0 / bluray_compat=0 / constrained_intra=0 / bframes=9 / b_pyramid=2 / b_adapt=2 / b_bias=0 / direct=3 / weightb=1 / open_gop=0 / weightp=2 / keyint=250 / keyint_min=23 / scenecut=40 / intra_refresh=0 / rc_lookahead=60 / rc=2pass / mbtree=0 / bitrate=15000 / ratetol=1.0 / qcomp=0.70 / qpmin=0 / qpmax=69 / qpstep=4 / cplxblur=20.0 / qblur=0.5 / vbv_maxrate=40000 / vbv_bufsize=30000 / nal_hrd=none / filler=0 / frame-packing=4 / ip_ratio=1.40 / pb_ratio=1.30 / aq=1:0.70
Language : English
Default : Yes
Forced : No

Audio #1
ID : 2
Format : AC-3
Format/Info : Audio Coding 3
Commercial name : Dolby Digital
Codec ID : A_AC3
Duration : 1 h 49 min
Bit rate mode : Constant
Bit rate : 640 kb/s
Channel(s) : 6 channels
Channel layout : L R C LFE Ls Rs
Sampling rate : 48.0 kHz
Frame rate : 31.250 FPS (1536 SPF)
Compression mode : Lossy
Stream size : 502 MiB (4%)
Title : MVO - @MUZOBOZ@ (перемонтаж из дороги Koshara-стерео в 5.1 - Ash61)
Language : Russian
Service kind : Complete Main
Default : Yes
Forced : No

Audio #2
ID : 3
Format : AC-3
Format/Info : Audio Coding 3
Commercial name : Dolby Digital
Codec ID : A_AC3
Duration : 1 h 49 min
Bit rate mode : Constant
Bit rate : 640 kb/s
Channel(s) : 6 channels
Channel layout : L R C LFE Ls Rs
Sampling rate : 48.0 kHz
Frame rate : 31.250 FPS (1536 SPF)
Compression mode : Lossy
Stream size : 502 MiB (4%)
Title : Original
Language : English
Service kind : Complete Main
Default : No
Forced : No

Menu
00:00:00.000 : :1
00:09:28.693 : :2
00:18:08.629 : :3
00:29:48.495 : :4
00:41:25.566 : :5
00:50:17.806 : :6
01:02:56.982 : :7
01:12:53.035 : :8
01:22:01.333 : :9
01:34:58.401 : :10

seedbit.cf



Скачать Врата воинов 3Д через торрент https://a.radikal.ru/a25/2001/92/fc9750b62551.png Скачать фильм Врата воинов 3Д через торрент бесплантно в хорошем качестве Описание: В компьютерных играх старшеклассник Джек Бронсон — непобедимый герой, способный дать отпор любому врагу. Но в реальности он ... 10 10 3
Торрент: Зарегистрирован [2020-01-11 16:33] · скачан: 13 раз
Статус: √ проверено
Размер: 12.47 GB
Как cкачать? Как скачать Врата воинов 3Д через торрент | qTorrent

% Раздел Тема Автор DL S | L
3D Фильмы [ 21.31 GB ] Врата воинов в 3Д / The Warriors Gate 3D [2016 BDRip 1080p] OverUnder / Вертикальная стереопара serega768 Скачать
2 | 0

28-11-2019 20:33  

Отключить всю рекламу на сайте

    Дорогой пользователь! Огромная просьба, поблагодарите релизера, оцените раздачу и оставьте свои комментарий, если Вы скачали Врата воинов 3Д через торрент бесплатно! Внесите свою лепту в развитие PiratBit!
    Комментировать посты могут только пользователи прошедшие не сложную регистрацию
    Показать сообщения:    

    Врата воинов 3Д через торрент
    Скачать бесплатно Врата воинов 3Д
    Врата воинов 3Д скачать торрент
    Врата воинов 3Д смотреть онлайн
    Cкачать фильм Врата воинов 3Д бесплатно
    Врата воинов 3Д скачать торрент в хорошем качестве
    Врата воинов 3Д смотреть онлайн бесплатно в хорошем качестве


    Вы не можете начинать темы
    Вы не можете отвечать на сообщения
    Вы не можете редактировать свои сообщения
    Вы не можете удалять свои сообщения
    Вы не можете голосовать в опросах
    Вы не можете прикреплять файлы к сообщениям
    Вы можете скачивать файлы