Ссылка на приватное зеркало всего за 1$. Внимание количество ограничено!!!

OK

1+1

iTunes

мы

OK

1

WEB-DLRip

Джокер

Пифагор

Ведьмак / The Witcher сериал

Лицензия

ПШазам

ОК

Оно 2

iTunes

30
pack

Вам бонус

ВАЖНО

!!Акция!!

Alien_RageХит недели

RePack

Resident Evil 21

ИГРА 18+

pack

RePack

jed

RePack

fifa19

RePack

Assassins Creed: Odyssey

RePack

NEED FOR SPEED™ PAYBACK

4 сезон

9 сезон

Бесстыжие 9 сезон

Все сериалы

все сериалы на PB.wtf

RePack

FAR CRY 5
  

Королевские каникулы / Trouble (Кевин Джонсон) [2019, Мультфильм, комедия, семейный, WEB-DL 720p] DUB [iTunes] seedbit.cf

Королевские каникулы через торрент seedbit.cf

Раздают: 10 [ 116 KB/s ]
Размер: 2.68 GB | Добавлен: 1 мес. 5 д. назад | Торрент скачан:176 раз
Скачать  

18-12-2019 16:09 Королевские каникулы Скачать торрент  

Королевские каникулы / Trouble
Год выпуска: 2019
Страна: Канада, США, Каймановы острова
Студия: 3QU Media, Cinesite Animation, Storyoscopic Films, Vanguard Animation, WV Enterprises
Жанр: Мультфильм, комедия, семейный
Продолжительность: 01:27:27
Перевод: Дублированный | iTunes
Субтитры: отсутствуют

Режиссер: Кевин Джонсон

rating

В ролях: Биг Шон, Памела Адлон, Люси Хейл, Марисса Джэрет Винокур, Джоэл МакХэйл, Уилмер Вальдеррама, Сет Роллинз, Ди Брэдли Бейкер, Кевин Чэмберлин, Лудо Лефевр

Описание: Наследник миллионного состояния и кучки неблагодарных родственников, его псиятельство Принц вышел из зоны комфорта и оказался на улице. Теперь он мечтает вернуться домой. Для этого ему нужно найти новых друзей, избавиться от назойливых белок и сбросить с хвоста матерого охотника. Королевские каникулы начинаются.

Качество: WEB-DL 720p
Формат: MKV

Видео: MPEG-4 AVC, 1280x720, 4003 Kbps, 24.000 fps
Аудио: Russian: AC3, 6 ch, 48 kHz, 384 kbps - DUB, iTunes
скриншот  скриншот  скриншот  скриншот  

Общее
Уникальный идентификатор : 302807628652107212334841518669641554669 (0xE3CEA0C0BDC3C71D9BE979826BD01AED)
Полное имя : C:UsersAdminDesktopTrouble.WEB-DL.720p.TeamHD.mkv
Формат : Matroska
Версия формата : Version 4 / Version 2
Размер файла : 2,68 Гбайт
Продолжительность : 1 ч. 27 м.
Общий поток : 4389 Кбит/сек
Название фильма : Trouble WEB-DL 720p TeamHD
Дата кодирования : UTC 2019-12-16 11:50:45
Программа кодирования : mkvmerge v41.0.0 ('Smarra') 64-bit
Библиотека кодирования : libebml v1.3.9 + libmatroska v1.5.2

Видео
Идентификатор : 1
Формат : AVC
Формат/Информация : Advanced Video Codec
Профиль формата : High@L3.1
Настройки формата : 2 Ref Frames
Параметр CABAC формата : Нет
Параметр RefFrames формата : 2 кадра
Идентификатор кодека : V_MPEG4/ISO/AVC
Продолжительность : 1 ч. 27 м.
Битрейт : 3918 Кбит/сек
Ширина : 1280 пикселей
Высота : 720 пикселей
Соотношение сторон : 16:9
Режим частоты кадров : Постоянный
Частота кадров : 24,000 кадра/сек
Цветовое пространство : YUV
Субдискретизация насыщенности : 4:2:0
Битовая глубина : 8 бит
Тип развёртки : Прогрессивная
Бит/(Пиксели*Кадры) : 0.177
Размер потока : 2,39 Гбайт (89%)
Язык : English
Default : Да
Forced : Нет
Цветовой диапазон : Limited
Основные цвета : BT.709
Характеристики трансфера : BT.709
Коэффициенты матрицы : BT.709

Аудио
Идентификатор : 2
Формат : AC-3
Формат/Информация : Audio Coding 3
Идентификатор кодека : A_AC3
Продолжительность : 1 ч. 27 м.
Вид битрейта : Постоянный
Битрейт : 384 Кбит/сек
Каналы : 6 каналов
Расположение каналов : Front: L C R, Side: L R, LFE
Частота : 48,0 КГц
Частота кадров : 31,250 кадров/сек (1536 SPF)
Битовая глубина : 16 бит
Метод сжатия : С потерями
Размер потока : 240 Мбайт (9%)
Заголовок : Russian DUB iTunes
Язык : Russian
Default : Да
Forced : Нет

Меню
00:00:00.000 : en:Глава 1
00:08:05.541 : en:Глава 2
00:16:41.166 : en:Глава 3
00:20:16.499 : en:Глава 4
00:33:09.915 : en:Глава 5
00:41:16.498 : en:Глава 6
00:49:32.081 : en:Глава 7
00:57:37.622 : en:Глава 8
01:05:45.497 : en:Глава 9
01:14:08.413 : en:Глава 10

seedbit.cf



Скачать Королевские каникулы через торрент https://a.radikal.ru/a09/1912/89/6581eb858398.png Скачать фильм Королевские каникулы через торрент бесплантно в хорошем качестве Описание: Наследник миллионного состояния и кучки неблагодарных родственников, его псиятельство Принц вышел из зоны комфорта и оказался на ... 8.2 10 5
Торрент: Зарегистрирован [2019-12-18 16:09] · скачан: 176 раз
Статус: √ проверено
Размер: 2.68 GB
Как cкачать? Как скачать Королевские каникулы через торрент | qTorrent

% Раздел Тема Автор DL S | L
Иностранные мультфильмы [ 747 MB ] Королевские каникулы / Trouble [2019 Мультфильм WEB-DLRip] bober100 Скачать
4 | 0
Иностранные мультфильмы [ 1.46 GB ] Королевские каникулы / Trouble [2019 Мультфильм WEB-DLRip] bober100 Скачать
10 | 0
Зарубежные Мультфильмы (WEB-DL 720p, 1080p) [ 3.36 GB ] Королевские каникулы / Trouble [2019 Мультфильм WEB-DL 1080p] bober100 Скачать
13 | 0

28-11-2019 20:33  

Отключить всю рекламу на сайте

    Дорогой пользователь! Огромная просьба, поблагодарите релизера, оцените раздачу и оставьте свои комментарий, если Вы скачали Королевские каникулы через торрент бесплатно! Внесите свою лепту в развитие PiratBit!
    Комментировать посты могут только пользователи прошедшие не сложную регистрацию
    Показать сообщения:    

    Королевские каникулы через торрент
    Скачать бесплатно Королевские каникулы
    Королевские каникулы скачать торрент
    Королевские каникулы смотреть онлайн
    Cкачать фильм Королевские каникулы бесплатно
    Королевские каникулы скачать торрент в хорошем качестве
    Королевские каникулы смотреть онлайн бесплатно в хорошем качестве


    Вы не можете начинать темы
    Вы не можете отвечать на сообщения
    Вы не можете редактировать свои сообщения
    Вы не можете удалять свои сообщения
    Вы не можете голосовать в опросах
    Вы не можете прикреплять файлы к сообщениям
    Вы можете скачивать файлы