новый адрес
Мега распродажа FORZA HORIZON 4 ULTIMATE+ВСЕ DLC+ОНЛАЙН всего за 499р. 349 руб. (супер цена). Внимание количество ограничено!!!

iTunes

1+1

iTunes

мы

iTunes

1

iTunes

Чернобыль

iTunes

Ральф против интернета

Лицензия

ПШазам

Лицензия

Игра престолов

Лицензия

30
pack

ВАЖНО

!!Акция!!

Alien_RageХит недели

RePack

Resident Evil 21

ИГРА 18+

pack

RePack

Metro:Exodus

!!Акция!!

Alien_Rage

RePack

fifa19

RePack

Assassins Creed: Odyssey

RePack

NEED FOR SPEED™ PAYBACK

3 сезон

9 сезон

Бесстыжие 9 сезон

Все сериалы

все сериалы на PB.wtf

RePack

FAR CRY 5
Ребята, катастрофически не хватает 1900р. для оплаты серверов за Октябрь (всвязи с блокировками трафик упал в 3 раза), 1-2р., выручайте.
  

Британия / Britannia / Сезон: 1 / Серии: 1-9 из 9 (Шери Фоксон, Кристоф Шреве, Люк Уотсон) [2018, Драма, фэнтези, WEB-DLRip] MVO [SDI Media] seedbit.cf

Британия через торрент seedbit.cf

Раздают: 3 [ 1 MB/s ] Качают: 8 [ 2 MB/s ]
Размер: 6.19 GB | Добавлен: 10 д. назад | Торрент скачан:19 раз
Скачать  

08-11-2019 15:43 Британия Скачать торрент  

Британия / Britannia Год выпуска: 2018
Страна: США, Великобритания
Жанр: Драма, фэнтези
Продолжительность: 00:45:00
Перевод: Профессиональный (многоголосый закадровый) | SDI Media по заказу Ivi (=Profix Media=Amedia=ViP Serial)
Субтитры: нет

Режиссёр: Шери Фоксон, Кристоф Шреве, Люк Уотсон

В ролях: Дэвид Моррисси, Келли Райлли, Николай Ли Каас, Лиана Корнелл, Гершвин Эсташ мл., Макензи Крук, Бэрри Уорд, Стэнли Вебер, Джо Армстронг, Фортунато Серлино

Описание: События сериала происходят в начале новой эры, когда Британия была населена очень воинственными кельтскими племенами, которые были не готовы перейти под управление иноземцев, пришедших с далекого юга. Во время римского завоевания Британии две враждующие кельтские воительницы — Керра и Антедия — вынуждены объединить силы, чтобы дать отпор римским легионам под предводительством Авла Плавтия.

Сэмпл: http://multi-up.com/1245707
rating

Качество: WEB-DLRip
Формат: AVI

Видео: MPEG4, DivX 5, 720x400 (16:9), 25.000 fps, 1 849 Kbps (0.257 bit/pixel)
Аудио: AC-3, 48.0 KHz, 2 ch, 192 Kbps, CBR - русский
Аудио 2: AC-3, 48.0 KHz, 2 ch, 192 Kbps, CBR - английский


Реклама: нет
Общее
Полное имя : I:\Britannia.S01E01.WEB-DLRip.Rus.Eng.avi
Формат : AVI
Формат/Информация : Audio Video Interleave
Размер файла : 1,09 Гбайт
Продолжительность : 1 ч. 9 м.
Общий поток : 2247 Кбит/сек
Название фильма : Британия. Сезон 1 / Britannia. Season 1 (2018)
Программа кодирования : VirtualDubMod 1.5.10.2 (build 2540/release)
Библиотека кодирования : VirtualDubMod build 2540/release
Авторское право : miha2154

Видео
Идентификатор : 0
Формат : MPEG-4 Visual
Профиль формата : Advanced Simple@L5
Настройки формата : BVOP1 / Custom Matrix
Параметр BVOP формата : 1
Параметр QPel формата : Нет
Параметр GMC формата : Без точки перехода
Параметр матрицы формата : Выборочная
Идентификатор кодека : DX50
Идентификатор кодека/Подсказка : DivX 5
Продолжительность : 1 ч. 9 м.
Битрейт : 1849 Кбит/сек
Ширина : 720 пикселей
Высота : 400 пикселей
Соотношение сторон : 16:9
Частота кадров : 25,000 кадров/сек
Цветовое пространство : YUV
Субдискретизация насыщенности : 4:2:0
Битовая глубина : 8 бит
Тип развёртки : Прогрессивная
Метод сжатия : С потерями
Бит/(Пиксели*Кадры) : 0.257
Размер потока : 921 Мбайт (82%)
Библиотека кодирования : XviD 65

Аудио #1
Идентификатор : 1
Формат : AC-3
Формат/Информация : Audio Coding 3
Коммерческое название : Dolby Digital
Идентификатор кодека : 2000
Продолжительность : 1 ч. 9 м.
Вид битрейта : Постоянный
Битрейт : 192 Кбит/сек
Каналы : 2 канала
Channel layout : L R
Частота : 48,0 КГц
Частота кадров : 31,250 кадров/сек (1536 SPF)
Битовая глубина : 16 бит
Метод сжатия : С потерями
Размер потока : 95,7 Мбайт (9%)
Выравнивание : Разделение по промежуткам
Продолжительность промежутка : 40 мс. (1,00 видеокадр)
Время предзагрузки промежутка : 500 мс.
Заголовок : Профессиональный (многоголосый, закадровый) Amedia
ServiceKind/String : Complete Main

Аудио #2
Идентификатор : 2
Формат : AC-3
Формат/Информация : Audio Coding 3
Коммерческое название : Dolby Digital
Идентификатор кодека : 2000
Продолжительность : 1 ч. 9 м.
Вид битрейта : Постоянный
Битрейт : 192 Кбит/сек
Каналы : 2 канала
Channel layout : L R
Частота : 48,0 КГц
Частота кадров : 31,250 кадров/сек (1536 SPF)
Битовая глубина : 16 бит
Метод сжатия : С потерями
Размер потока : 95,7 Мбайт (9%)
Выравнивание : Разделение по промежуткам
Продолжительность промежутка : 40 мс. (1,00 видеокадр)
Время предзагрузки промежутка : 500 мс.
Заголовок : Английский
ServiceKind/String : Complete Main
seedbit.cf



Скачать Британия через торрент https://c.radikal.ru/c43/1801/e4/b45630625b5a.jpg Скачать фильм Британия через торрент бесплантно в хорошем качестве Описание: События сериала происходят в начале новой эры, когда Британия была населена очень воинственными кельтскими племенами, которые ... 10 10 2
Торрент: Зарегистрирован [2019-11-08 15:43] · скачан: 19 раз
Статус: √ проверено
Размер: 6.19 GB
Как cкачать? Как скачать Британия через торрент | qTorrent

% Раздел Тема Автор DL S | L
Зарубежные сериалы [ 38.81 GB ] Британия / Britannia / Сезон: 1 / Серии: 1-9 из 9 [2018 WEB-DL 1080p] 4xMVO [Jaskier AlexFilm AMS NewStudio] bober100 Скачать
1 | 0
Зарубежные сериалы [ 7.03 GB ] Британия / Britannia / Сезон: 1 / Серии: 1-9 из 9 [2017 HDRip] [MVO] killermax2013 Скачать
2 | 0
Зарубежные сериалы [ 32.81 GB ] Британия / Britannia / 1 сезон / 1-9 серия из 9 [2018 BDRip] [1080p] [MVO] killermax2013 Скачать
1 | 0
Зарубежные сериалы [ 13.96 GB ] Британия / Britannia / 1 сезон / 1-9 серия из 9 [2018 WEB-DL 720p] [MVO] killermax2013 Скачать
1 | 0
Зарубежные сериалы [ 12.45 GB ] Британия / Britannia / Сезон: 1 / Серии: 1-9 из 9 [2017 WEB-DL 720p] MVO [Jaskier] bober100 Скачать
2 | 0
Зарубежные сериалы [ 33.89 GB ] Британия / Britannia / Сезон: 1 / Серии: 1-9 из 9 [2017 WEB-DL 1080p] MVO [Jaskier] bober100 Скачать
1 | 0
Зарубежные сериалы [ 4.91 GB ] Британия / Britannia / Сезон: 1 / Серии: 1-9 из 9 [2017 WEB-DLRip] MVO [Jaskier] bober100 Скачать
1 | 0


>> Регистрируемся здесь <<






Отзывы и комментарии о схеме читаем и пишем здесь: ---> Отзывы и комментарии о схеме

Новые благодарочки в телеграм довольных пользователей:
скриншот   скриншот   скриншот   скриншот   скриншот
    Дорогой пользователь! Огромная просьба, поблагодарите релизера, оцените раздачу и оставьте свои комментарий, если Вы скачали Британия через торрент бесплатно! Внесите свою лепту в развитие PiratBit!
    Комментировать посты могут только пользователи прошедшие не сложную регистрацию
    Показать сообщения:    

    Британия через торрент
    Скачать бесплатно Британия
    Британия скачать торрент
    Британия смотреть онлайн
    Cкачать фильм Британия бесплатно
    Британия скачать торрент в хорошем качестве
    Британия смотреть онлайн бесплатно в хорошем качестве


    Вы не можете начинать темы
    Вы не можете отвечать на сообщения
    Вы не можете редактировать свои сообщения
    Вы не можете удалять свои сообщения
    Вы не можете голосовать в опросах
    Вы не можете прикреплять файлы к сообщениям
    Вы можете скачивать файлы