новый адрес пиратбит piratbit
Мега распродажа FORZA HORIZON 4 ULTIMATE+ВСЕ DLC+ОНЛАЙН всего за 499р. 349 руб. (супер цена). Внимание количество ограничено!!!

iTunes

1+1

iTunes

мы

iTunes

1

iTunes

Чернобыль

iTunes

Ральф против интернета

Лицензия

ПШазам

Лицензия

Игра престолов

Лицензия

30
pack

ВАЖНО

!!Акция!!

Alien_RageХит недели

RePack

Resident Evil 21

ИГРА 18+

pack

RePack

Metro:Exodus

!!Акция!!

Alien_Rage

RePack

fifa19

RePack

Assassins Creed: Odyssey

RePack

NEED FOR SPEED™ PAYBACK

3 сезон

9 сезон

Бесстыжие 9 сезон

Все сериалы

все сериалы на PB.wtf

RePack

FAR CRY 5
Ребята, катастрофически не хватает 1900р. для оплаты серверов за Октябрь (всвязи с блокировками трафик упал в 3 раза), 1-2р., выручайте.
  

Идеальный незнакомец / Perfect stranger (Джеймс Фоули) [2007, триллер, драма, криминал, детектив, BDRip 1080p] DUB + AVO - KORSAR seedbit.cf

Идеальный незнакомец через торрент seedbit.cf

Раздают: 6 [ 0 KB/s ]
Размер: 13.86 GB | Добавлен: 5 д. назад | Торрент скачан:33 раза
Скачать  

07-11-2019 16:24 Идеальный незнакомец Скачать торрент  

Идеальный незнакомец / Perfect stranger
Год выпуска: 2007
Страна: США
Жанр: Триллер, драма, криминал, детектив
Продолжительность: 01:48:58
Перевод: Дублированный, авторский одноголосый
Субтитры: Русские, английские
Режиссёр: Джеймс Фоули
В ролях: Холли Берри, Брюс Уиллис, Джованни Рибизи, Ричард Портноу, Гэри Дурдан, Флоренция Лозаньо, Никки Эйкокс, Кэтлин Чэлфант, Гордон МакДональд, Дэниэлла Ван Граас, Паула Миранда, Патти Д`Арбанвилль, Клеа Льюис, Тамара Фельдман, Джерри Бекер, Джаред Бурк
Описание: Когда журналистка Ровена Прайс, занимающаяся расследованием убийства своей подруги, узнает, что к нему может быть причастен влиятельный глава рекламного агентства Харрисон Хилл, она затевает опасную игру вместе со своим помощником Майлзом Хэйли. Принимая образы Катарины, машинистки в агентстве Хилла и Вероники, девушки, с которой Хилл флиртует в Интернете, она плетет хитроумную паутину вокруг своей жертвы.

rating

Качество: BDRip 1080p
Формат: MKV
Видео: MPEG-4 AVC, 15500 Кбит/сек, 1920x800, 23.976 Кадр/сек
Аудио 1: Russian: AC3, 6 ch, 640 Кбит/сек - DUB, Невафильм
Аудио 2: Russian: AC3, 6 ch, 640 Кбит/сек - AVO, А. Гаврилов
Аудио 3: Ukrainian: AC3, 6 ch, 448 Кбит/сек - DUB
Аудио 4: English: AC3, 6 ch, 640 Кбит/сек - Оригинал

Релиз от:


Общее
Уникальный идентификатор : 179579047845628026071299441040615953160 (0x8719AAA3E02C0E2FB924F3BEBE125308)
Полное имя : Идеальный.незнакомец.2007.BDRip.1080p.mkv
Формат : Matroska
Версия формата : Version 2
Размер файла : 13,9 Гбайт
Продолжительность : 1 ч. 48 м.
Общий поток : 18,2 Мбит/сек
Дата кодирования : UTC 2018-10-24 18:51:15
Программа кодирования : mkvmerge v5.8.0 ('No Sleep / Pillow') built on Sep 2 2012 15:37:04
Библиотека кодирования : libebml v1.2.3 + libmatroska v1.3.0

Видео
Идентификатор : 1
Формат : AVC
Формат/Информация : Advanced Video Codec
Профиль формата : High@L4.1
Настройки формата : CABAC / 5 Ref Frames
Параметр CABAC формата : Да
Параметр RefFrames формата : 5 кадров
Идентификатор кодека : V_MPEG4/ISO/AVC
Продолжительность : 1 ч. 48 м.
Битрейт : 15,5 Мбит/сек
Ширина : 1920 пикселей
Высота : 800 пикселей
Соотношение сторон : 2,40:1
Режим частоты кадров : Постоянный
Частота кадров : 23,976 (24000/1001) кадра/сек
Цветовое пространство : YUV
Субдискретизация насыщенности : 4:2:0
Битовая глубина : 8 бит
Тип развёртки : Прогрессивная
Бит/(Пиксели*Кадры) : 0.420
Размер потока : 11,8 Гбайт (85%)
Библиотека кодирования : x264 core 142 r2409+41 9f37d41 tMod [8-bit@all X86_64]
Настройки программы : cabac=1 / ref=5 / deblock=1:-2:-2 / analyse=0x3:0x133 / me=umh / subme=11 / psy=1 / fade_compensate=0.00 / psy_rd=1.10:0.00 / mixed_ref=1 / me_range=32 / chroma_me=1 / trellis=2 / 8x8dct=1 / cqm=0 / deadzone=21,11 / fast_pskip=0 / chroma_qp_offset=-2 / threads=12 / lookahead_threads=3 / sliced_threads=0 / nr=0 / decimate=1 / interlaced=0 / bluray_compat=0 / constrained_intra=0 / fgo=0 / bframes=11 / b_pyramid=2 / b_adapt=2 / b_bias=0 / direct=3 / weightb=1 / open_gop=0 / weightp=2 / keyint=240 / keyint_min=23 / scenecut=40 / intra_refresh=0 / rc=crf / mbtree=0 / crf=17.0000 / qcomp=0.60 / qpmin=0:0:0 / qpmax=69:69:69 / qpstep=4 / ip_ratio=1.40 / pb_ratio=1.20 / aq=4:0.80 / aq-sensitivity=10.00 / aq-factor=1.00:1.00:1.00 / aq2=0 / aq3=0
Язык : English
По умолчанию : Да
Принудительно : Нет

Аудио #1
Идентификатор : 2
Формат : AC-3
Формат/Информация : Audio Coding 3
Идентификатор кодека : A_AC3
Продолжительность : 1 ч. 48 м.
Вид битрейта : Постоянный
Битрейт : 640 Кбит/сек
Каналы : 6 каналов
Расположение каналов : Front: L C R, Side: L R, LFE
Частота : 48,0 КГц
Частота кадров : 31,250 кадров/сек (1536 SPF)
Битовая глубина : 16 бит
Метод сжатия : С потерями
Размер потока : 499 Мбайт (4%)
Заголовок : DUB | Невафильм
Язык : Russian
По умолчанию : Да
Принудительно : Нет

Аудио #2
Идентификатор : 3
Формат : AC-3
Формат/Информация : Audio Coding 3
Идентификатор кодека : A_AC3
Продолжительность : 1 ч. 48 м.
Вид битрейта : Постоянный
Битрейт : 640 Кбит/сек
Каналы : 6 каналов
Расположение каналов : Front: L C R, Side: L R, LFE
Частота : 48,0 КГц
Частота кадров : 31,250 кадров/сек (1536 SPF)
Битовая глубина : 16 бит
Метод сжатия : С потерями
Размер потока : 499 Мбайт (4%)
Заголовок : AVO | А. Гаврилов
Язык : Russian
По умолчанию : Нет
Принудительно : Нет

Аудио #3
Идентификатор : 4
Формат : AC-3
Формат/Информация : Audio Coding 3
Идентификатор кодека : A_AC3
Продолжительность : 1 ч. 48 м.
Вид битрейта : Постоянный
Битрейт : 448 Кбит/сек
Каналы : 6 каналов
Расположение каналов : Front: L C R, Side: L R, LFE
Частота : 48,0 КГц
Частота кадров : 31,250 кадров/сек (1536 SPF)
Битовая глубина : 16 бит
Метод сжатия : С потерями
Размер потока : 349 Мбайт (2%)
Заголовок : DUB
Язык : Ukrainian
По умолчанию : Нет
Принудительно : Нет

Аудио #4
Идентификатор : 5
Формат : AC-3
Формат/Информация : Audio Coding 3
Идентификатор кодека : A_AC3
Продолжительность : 1 ч. 48 м.
Вид битрейта : Постоянный
Битрейт : 640 Кбит/сек
Каналы : 6 каналов
Расположение каналов : Front: L C R, Side: L R, LFE
Частота : 48,0 КГц
Частота кадров : 31,250 кадров/сек (1536 SPF)
Битовая глубина : 16 бит
Метод сжатия : С потерями
Размер потока : 499 Мбайт (4%)
Заголовок : Original
Язык : English
По умолчанию : Нет
Принудительно : Нет

Текст #1
Идентификатор : 6
Формат : UTF-8
Идентификатор кодека : S_TEXT/UTF8
Идентификатор кодека/Информация : UTF-8 Plain Text
Язык : Russian
По умолчанию : Нет
Принудительно : Нет

Текст #2
Идентификатор : 7
Формат : UTF-8
Идентификатор кодека : S_TEXT/UTF8
Идентификатор кодека/Информация : UTF-8 Plain Text
Язык : English
По умолчанию : Нет
Принудительно : Нет

Меню
00:00:00.000 : en:Chapter 01
00:05:21.821 : en:Chapter 02
00:12:18.947 : en:Chapter 03
00:20:44.869 : en:Chapter 04
00:27:23.225 : en:Chapter 05
00:34:58.471 : en:Chapter 06
00:41:59.976 : en:Chapter 07
00:51:50.482 : en:Chapter 08
00:57:38.080 : en:Chapter 09
01:04:38.458 : en:Chapter 10
01:11:20.276 : en:Chapter 11
01:17:23.347 : en:Chapter 12
01:24:55.924 : en:Chapter 13
01:31:49.421 : en:Chapter 14
01:35:18.004 : en:Chapter 15
01:41:38.467 : en:Chapter 16
seedbit.cf



Скачать Идеальный незнакомец через торрент https://i3.imageban.ru/out/2019/11/07/d2dcf3eb7af045bf1fc71fcdf22578ea.png Скачать фильм Идеальный незнакомец через торрент бесплантно в хорошем качестве Описание: Когда журналистка Ровена Прайс, занимающаяся расследованием убийства своей подруги, узнает, что к нему может быть причастен ... 10 10 1
Info! Золотая раздача, скачанное не засчитывается.
Торрент: Зарегистрирован [2019-11-07 16:24] · скачан: 33 раз
Статус: √ проверено
Размер: 13.86 GB
Как cкачать? Как скачать Идеальный незнакомец через торрент | qTorrent


>> Регистрируемся здесь <<






Отзывы и комментарии о схеме читаем и пишем здесь: ---> Отзывы и комментарии о схеме

Новые благодарочки в телеграм довольных пользователей:
скриншот   скриншот   скриншот   скриншот   скриншот
    Дорогой пользователь! Огромная просьба, поблагодарите релизера, оцените раздачу и оставьте свои комментарий, если Вы скачали Идеальный незнакомец через торрент бесплатно! Внесите свою лепту в развитие PiratBit!
    Комментировать посты могут только пользователи прошедшие не сложную регистрацию
    Показать сообщения:    

    Идеальный незнакомец через торрент
    Скачать бесплатно Идеальный незнакомец
    Идеальный незнакомец скачать торрент
    Идеальный незнакомец смотреть онлайн
    Cкачать фильм Идеальный незнакомец бесплатно
    Идеальный незнакомец скачать торрент в хорошем качестве
    Идеальный незнакомец смотреть онлайн бесплатно в хорошем качестве


    Вы не можете начинать темы
    Вы не можете отвечать на сообщения
    Вы не можете редактировать свои сообщения
    Вы не можете удалять свои сообщения
    Вы не можете голосовать в опросах
    Вы не можете прикреплять файлы к сообщениям
    Вы можете скачивать файлы