новый адрес пиратбит piratbit
Мега распродажа FORZA HORIZON 4 ULTIMATE+ВСЕ DLC+ОНЛАЙН всего за 499р. 349 руб. (супер цена). Внимание количество ограничено!!!

iTunes

1+1

iTunes

мы

iTunes

1

iTunes

Чернобыль

iTunes

Ральф против интернета

Лицензия

ПШазам

Лицензия

Игра престолов

Лицензия

30
pack

ВАЖНО

!!Акция!!

Alien_RageХит недели

RePack

Resident Evil 21

ИГРА 18+

pack

RePack

Metro:Exodus

!!Акция!!

Alien_Rage

RePack

fifa19

RePack

Assassins Creed: Odyssey

RePack

NEED FOR SPEED™ PAYBACK

3 сезон

9 сезон

Бесстыжие 9 сезон

Все сериалы

все сериалы на PB.wtf

RePack

FAR CRY 5
Ребята, катастрофически не хватает 1900р. для оплаты серверов за Октябрь (всвязи с блокировками трафик упал в 3 раза), 1-2р., выручайте.
  

Игра Ганнибала / Nomis / Night Hunter (Дэвид Рэймонд) [2018, Боевик, триллер, BDRip 1080p] DUB [iTunes] +MVO [HDrezka Studio] seedbit.cf

Игра Ганнибала через торрент seedbit.cf

Раздают: 22 [ 1019 KB/s ]
Размер: 8.17 GB | Добавлен: 6 д. назад | Торрент скачан:162 раза
Скачать  

06-11-2019 21:34 Игра Ганнибала Скачать торрент  

Игра Ганнибала / Nomis / Night Hunter
Год выпуска: 2018
Страна: Канада, США
Студия: Arcola Entertainment, Arise Pictures, Buffalo Gal Pictures
Жанр: Боевик, триллер
Продолжительность: 01:38:58
Перевод:

#1: Дублированный | iTunes
#2: Профессиональный (многоголосый) | HDRezka studio

Субтитры: Русские (Forced), английские

Режиссер: Дэвид Рэймонд

rating

В ролях: Бен Кингсли, Стэнли Туччи, Александра Даддарио, Генри Кавилл, Минка Келли, Натан Филлион, Сара Томпсон, Элиана Джонс, Брендан Флетчер, Эмма Тремблей

Описание: Выслеживая неуловимого серийного убийцу, виновного в похищении и изнасиловании нескольких девушек, закаленный в боях полицейский Маршалл встречает бывшего судью Купера и юную Лару, которые используют против насильников собственные методы правосудия. Когда Лару похищает разыскиваемый Маршаллом преступник, которым оказывается психически неуравновешенный Саймон, ему удается выследить и арестовать его. Коллега героя Рейчел считает, что в теле подозреваемого уживается сразу несколько личностей, одна из которых затеяла опасную игру с полицейскими. Ее догадка подтверждается после того, как происходит серия новых преступлений, а все улики указывают на находящегося под стражей Саймона…

Качество: BDRip 1080p
Формат: MKV

Видео: MPEG-4 AVC, 1920x804, 10.6 Mbit/s, 23.976 fps
Аудио #01: 48 kHz, AC3, 5.1, 384 Kbps | iTunes | RUS |
Аудио #02: 48 kHz, AC3, 2.0, 192 Kbps | HDRezka Studio | RUS |
Аудио #03: 48 kHz, AC3, 5.1, 640 Kbps | Оригинал | ENG |
скриншот  скриншот  скриншот  скриншот  скриншот  

General
Unique ID : 337398847758959537327353951187568856723 (0xFDD4A7876B25E0FC5214DA70703A8E93)
Complete name : D:Video111Nomis.2018.BDRip.1080p.seleZen.mkv
Format : Matroska
Format version : Version 4
File size : 8.17 GiB
Duration : 1 h 38 min
Overall bit rate : 11.8 Mb/s
Movie name : Nomis 2018 from селезень
Encoded date : UTC 2019-11-06 20:37:18
Writing application : mkvmerge v22.0.0 ('At The End Of The World') 64-bit
Writing library : libebml v1.3.5 + libmatroska v1.4.8

Video
ID : 1
Format : AVC
Format/Info : Advanced Video Codec
Format profile : High@L4.1
Format settings : CABAC / 5 Ref Frames
Format settings, CABAC : Yes
Format settings, Reference : 5 frames
Codec ID : V_MPEG4/ISO/AVC
Duration : 1 h 38 min
Bit rate : 10.6 Mb/s
Width : 1 920 pixels
Height : 804 pixels
Display aspect ratio : 2.40:1
Frame rate mode : Constant
Frame rate : 23.976 (24000/1001) FPS
Color space : YUV
Chroma subsampling : 4:2:0
Bit depth : 8 bits
Scan type : Progressive
Bits/(Pixel*Frame) : 0.286
Stream size : 7.33 GiB (90%)
Title : DON
Writing library : x264 core 157 r2970+47 cae74a0 t_mod_New [0-bit@all X86_64]
Encoding settings : cabac=1 / ref=5 / deblock=1:-3:-3 / analyse=0x3:0x133 / me=umh / subme=10 / psy=1 / fade_compensate=0.00 / psy_rd=1.00:0.00 / mixed_ref=1 / me_range=32 / chroma_me=1 / trellis=2 / 8x8dct=1 / cqm=0 / deadzone=21,11 / fast_pskip=0 / chroma_qp_offset=-2 / threads=24 / lookahead_threads=4 / sliced_threads=0 / nr=0 / decimate=0 / interlaced=0 / bluray_compat=0 / constrained_intra=0 / fgo=0 / bframes=8 / b_pyramid=2 / b_adapt=2 / b_bias=0 / direct=3 / weightb=1 / open_gop=0 / weightp=2 / keyint=250 / keyint_min=23 / scenecut=40 / intra_refresh=0 / rc=crf / mbtree=0 / crf=16.0000 / qcomp=0.60 / qpmin=0:0:0 / qpmax=69:69:69 / qpstep=4 / ip_ratio=1.30 / pb_ratio=1.20 / aq=3:0.80 / aq-sensitivity=10.00 / aq-factor=1.00:1.00:1.00 / aq2=0 / aq3=0 / zones=44424,44603,crf=13/44639,44724,crf=13/44764,45458,crf=13
Language : English
Default : Yes
Forced : No

Audio #1
ID : 2
Format : AC-3
Format/Info : Audio Coding 3
Commercial name : Dolby Digital
Codec ID : A_AC3
Duration : 1 h 38 min
Bit rate mode : Constant
Bit rate : 384 kb/s
Channel(s) : 6 channels
Channel layout : L R C LFE Ls Rs
Sampling rate : 48.0 kHz
Frame rate : 31.250 FPS (1536 SPF)
Bit depth : 16 bits
Compression mode : Lossy
Stream size : 272 MiB (3%)
Title : Dub [iTunes]
Language : Russian
Service kind : Complete Main
Default : Yes
Forced : Yes

Audio #2
ID : 3
Format : AC-3
Format/Info : Audio Coding 3
Commercial name : Dolby Digital
Codec ID : A_AC3
Duration : 1 h 38 min
Bit rate mode : Constant
Bit rate : 192 kb/s
Channel(s) : 2 channels
Channel layout : L R
Sampling rate : 48.0 kHz
Frame rate : 31.250 FPS (1536 SPF)
Bit depth : 16 bits
Compression mode : Lossy
Stream size : 136 MiB (2%)
Title : MVO [HDRezka Studio]
Language : Russian
Service kind : Complete Main
Default : No
Forced : No

Audio #3
ID : 4
Format : AC-3
Format/Info : Audio Coding 3
Commercial name : Dolby Digital
Codec ID : A_AC3
Duration : 1 h 38 min
Bit rate mode : Constant
Bit rate : 640 kb/s
Channel(s) : 6 channels
Channel layout : L R C LFE Ls Rs
Sampling rate : 48.0 kHz
Frame rate : 31.250 FPS (1536 SPF)
Bit depth : 16 bits
Compression mode : Lossy
Stream size : 453 MiB (5%)
Title : Original
Language : English
Service kind : Complete Main
Default : No
Forced : No

Text #1
ID : 5
Format : UTF-8
Codec ID : S_TEXT/UTF8
Codec ID/Info : UTF-8 Plain Text
Duration : 1 h 1 min
Bit rate : 1 b/s
Count of elements : 12
Stream size : 490 Bytes (0%)
Title : Forced
Language : Russian
Default : Yes
Forced : Yes

Text #2
ID : 6
Format : UTF-8
Codec ID : S_TEXT/UTF8
Codec ID/Info : UTF-8 Plain Text
Duration : 1 h 32 min
Bit rate : 43 b/s
Count of elements : 1100
Stream size : 29.4 KiB (0%)
Language : English
Default : No
Forced : No

Menu
00:00:00.000 : :Chapter 01
00:13:20.299 : :Chapter 02
00:25:10.884 : :Chapter 03
00:40:01.107 : :Chapter 04
00:53:13.315 : :Chapter 05
01:08:14.507 : :Chapter 06
01:23:00.142 : :Chapter 07
01:33:35.652 : :Chapter 08

seedbit.cf



Скачать Игра Ганнибала через торрент https://a.radikal.ru/a20/1911/60/74e9718fac20.jpg Скачать фильм Игра Ганнибала через торрент бесплантно в хорошем качестве Описание: Выслеживая неуловимого серийного убийцу, виновного в похищении и изнасиловании нескольких девушек, закаленный в боях полицейский ... 10 10 5
Торрент: Зарегистрирован [2019-11-06 21:35] · скачан: 162 раз
Статус: √ проверено
Размер: 8.17 GB
Как cкачать? Как скачать Игра Ганнибала через торрент | qTorrent

% Раздел Тема Автор DL S | L
Фильмы 2018 [DVDrip, WEB-DLRip, HDrip] (DUB, MVO) [ 743 MB ] Игра Ганнибала / Nomis / Night Hunter [2018 BDRip-AVC] - OlLanDGroup Skandar2019 Скачать
10 | 1
Фильмы 2018 [DVDrip, WEB-DLRip, HDrip] (DUB, MVO) [ 1.96 GB ] Игра Ганнибала / Nomis / Night Hunter [2018 BDRip-AVC] +MVO [HDrezka Studio] bober100 Скачать
30 | 3
Фильмы (Blu-ray, BD-Remux, HDDVD) [ 21.17 GB ] Игра Ганнибала / Nomis / Night Hunter [2018 BD Remux 1080p] +MVO [HDrezka Studio] bober100 Скачать
4 | 1
Фильмы 2018 [DVDrip, WEB-DLRip, HDrip] (DUB, MVO) [ 1.42 GB ] Игра Ганнибала / Nomis / Night Hunter [2018 BDRip] bober100 Скачать
13 | 0
Фильмы [HD 720p, 1080p] (Хороший звук DUB, MVO) [ 4.04 GB ] Игра Ганнибала / Nomis / Night Hunter [2018 BDRip 720p] +MVO [HDrezka Studio] bober100 Скачать
12 | 0
T Фильмы 2018 [DVDrip, WEB-DLRip, HDrip] (DUB, MVO) [ 1.36 GB ] Игра Ганнибала / Night Hunter / Nomis [2018 WEB-DLRip] MVO [HDRezka Studio] - ExKinoRay Enigma2010 Скачать
812 | 67


>> Регистрируемся здесь <<






Отзывы и комментарии о схеме читаем и пишем здесь: ---> Отзывы и комментарии о схеме

Новые благодарочки в телеграм довольных пользователей:
скриншот   скриншот   скриншот   скриншот   скриншот
    Дорогой пользователь! Огромная просьба, поблагодарите релизера, оцените раздачу и оставьте свои комментарий, если Вы скачали Игра Ганнибала через торрент бесплатно! Внесите свою лепту в развитие PiratBit!
    Комментировать посты могут только пользователи прошедшие не сложную регистрацию
    Показать сообщения:    

    Игра Ганнибала через торрент
    Скачать бесплатно Игра Ганнибала
    Игра Ганнибала скачать торрент
    Игра Ганнибала смотреть онлайн
    Cкачать фильм Игра Ганнибала бесплатно
    Игра Ганнибала скачать торрент в хорошем качестве
    Игра Ганнибала смотреть онлайн бесплатно в хорошем качестве


    Вы не можете начинать темы
    Вы не можете отвечать на сообщения
    Вы не можете редактировать свои сообщения
    Вы не можете удалять свои сообщения
    Вы не можете голосовать в опросах
    Вы не можете прикреплять файлы к сообщениям
    Вы можете скачивать файлы