новый адрес
Мега распродажа FORZA HORIZON 4 ULTIMATE+ВСЕ DLC+ОНЛАЙН всего за 499р. 349 руб. (супер цена). Внимание количество ограничено!!!

iTunes

1+1

iTunes

мы

iTunes

1

iTunes

Чернобыль

iTunes

Ральф против интернета

Лицензия

ПШазам

Лицензия

Оно 2

Лицензия

30
pack

ВАЖНО

!!Акция!!

Alien_RageХит недели

RePack

Resident Evil 21

ИГРА 18+

pack

RePack

jed

!!Акция!!

Alien_Rage

RePack

fifa19

RePack

Assassins Creed: Odyssey

RePack

NEED FOR SPEED™ PAYBACK

3 сезон

9 сезон

Бесстыжие 9 сезон

Все сериалы

все сериалы на PB.wtf

RePack

FAR CRY 5
Ребята, катастрофически не хватает 1900р. для оплаты серверов за Октябрь (всвязи с блокировками трафик упал в 3 раза), 1-2р., выручайте.
  

Тредстоун / Treadstone / Сезон 1 / Серии 1-5 из 10 (Алекс Грейвз) [2019, боевик, WEB-DL 720p] MVO [AlexFilm] seedbit.cf

Тредстоун через торрент seedbit.cf

Раздают: 2 [ 44 KB/s ] Качают: 1 [ 0 KB/s ]
Размер: 7.53 GB | Добавлен: 6 д. назад | Торрент скачан:6 раз
Скачать  

20-10-2019 01:08 Тредстоун Скачать торрент  

8Тредстоун | Treadstone
«From the World of Jason Bourne»
Производство: США
Год выпуска: 2019
Жанр: боевик
Продолжительность: ~ 01:00:00 серия
Премьера (мир): 24 сентября 2019,
Перевод: Профессиональный (многоголосый закадровый) | AlexFilm
Субтитры: Rus, Eng (SDH)

Режиссёр: Алекс Грейвз, Уэйн Йип, Рамин Бахрани
В ролях: Габриэль Шарницки, Джереми Ирвин, Хё Чжу Хан, Трэйси Айфичор, Эмилия Шуле, Майкл Гэстон, Мишель Форбс, Патрик Фьюджит, Шрути Хасан, Тесс Хобрич
Описание:
Секретная программа ЦРУ «Тредстоун» превращает оперативников в смертоносных убийц с помощью модификаций поведения. Несколько подобных «спящих» агентов в разных уголках мира неожиданно оказываются активированными для выполнения загадочной миссии.



Качество видео: WEB-DL 720p
Формат: MKV

Видео: AVC, 1280 x 720 (1.778), 23.976 fps, ~4283 kbps
Аудио Rus: AC-3, 48 kHz, 6 ch, 384 kbps |AlexFilm|
Аудио Eng: AC-3, 48 kHz, 6 ch, 384 kbps |Original|


Реклама: Отсутствует
Релиз:

Перевод: Константин Кривоногов
Монтаж и сведение звука: Герман Карика
Роли озвучивали:

Екатерина Муравицкая
Нана Саркисян
Константин Федосеев
Кирилл Патрино
Михаил Цареградский
Алексей Никитин
Общее
Уникальный идентификатор : 43499509550692143587804565313494039484 (0x20B9B367B179CE1343200F7CDF15BBBC)
Полное имя : E:\Treadstone.s01.WEB-DL.720p.AlexFilm\Treadstone.s01e01.WEB-DL.720p.AlexFilm.mkv
Формат : Matroska
Версия формата : Version 4
Размер файла : 1,86 Гбайт
Продолжительность : 52 м. 44 с.
Общий поток : 5054 Кбит/сек
Название фильма : Treadstone 1x01 @ AlexFilm
Дата кодирования : UTC 2019-10-31 10:03:24
Программа кодирования : mkvmerge v38.0.0 ('The Silent Type') 64-bit
Библиотека кодирования : libebml v1.3.9 + libmatroska v1.5.2

Видео
Идентификатор : 1
Формат : AVC
Формат/Информация : Advanced Video Codec
Профиль формата : High@L3.1
Настройки формата : CABAC / 4 Ref Frames
Параметр CABAC формата : Да
Параметр RefFrames формата : 4 кадра
Идентификатор кодека : V_MPEG4/ISO/AVC
Продолжительность : 52 м. 44 с.
Вид битрейта : Постоянный
Битрейт : 4283 Кбит/сек
Номинальный битрейт : 6000 Кбит/сек
Ширина : 1280 пикселей
Высота : 720 пикселей
Соотношение сторон : 16:9
Режим частоты кадров : Постоянный
Частота кадров : 23,976 (24000/1001) кадра/сек
Цветовое пространство : YUV
Субдискретизация насыщенности : 4:2:0
Битовая глубина : 8 бит
Тип развёртки : Прогрессивная
Бит/(Пиксели*Кадры) : 0.194
Размер потока : 1,58 Гбайт (85%)
Язык : English
Default : Да
Forced : Нет
Цветовой диапазон : Limited
Основные цвета : BT.709
Характеристики трансфера : BT.709
Коэффициенты матрицы : BT.709

Аудио #1
Идентификатор : 2
Формат : AC-3
Формат/Информация : Audio Coding 3
Коммерческое название : Dolby Digital
Идентификатор кодека : A_AC3
Продолжительность : 52 м. 44 с.
Вид битрейта : Постоянный
Битрейт : 384 Кбит/сек
Каналы : 6 каналов
ChannelLayout : L R C LFE Ls Rs
Частота : 48,0 КГц
Частота кадров : 31,250 кадров/сек (1536 SPF)
Метод сжатия : С потерями
Размер потока : 145 Мбайт (8%)
Заголовок : DD5.1 AlexFilm
Язык : Russian
ServiceKind/String : Complete Main
Default : Да
Forced : Нет

Аудио #2
Идентификатор : 3
Формат : AC-3
Формат/Информация : Audio Coding 3
Коммерческое название : Dolby Digital
Идентификатор кодека : A_AC3
Продолжительность : 52 м. 44 с.
Вид битрейта : Постоянный
Битрейт : 384 Кбит/сек
Каналы : 6 каналов
ChannelLayout : L R C LFE Ls Rs
Частота : 48,0 КГц
Частота кадров : 31,250 кадров/сек (1536 SPF)
Метод сжатия : С потерями
Размер потока : 145 Мбайт (8%)
Заголовок : DD5.1 Original
Язык : English
ServiceKind/String : Complete Main
Default : Нет
Forced : Нет

Текст #1
Идентификатор : 4
Формат : UTF-8
Идентификатор кодека : S_TEXT/UTF8
Идентификатор кодека/Информация : UTF-8 Plain Text
Продолжительность : 52 м. 37 с.
Битрейт : 52 бит/сек
ElementCount : 477
Размер потока : 20,2 Кбайт (0%)
Язык : Russian
Default : Нет
Forced : Нет

Текст #2
Идентификатор : 5
Формат : UTF-8
Идентификатор кодека : S_TEXT/UTF8
Идентификатор кодека/Информация : UTF-8 Plain Text
Продолжительность : 51 м. 16 с.
Битрейт : 29 бит/сек
ElementCount : 390
Размер потока : 11,2 Кбайт (0%)
Язык : English
Default : Нет
Forced : Нет

Текст #3
Идентификатор : 6
Формат : UTF-8
Идентификатор кодека : S_TEXT/UTF8
Идентификатор кодека/Информация : UTF-8 Plain Text
Продолжительность : 52 м. 31 с.
Битрейт : 40 бит/сек
ElementCount : 710
Размер потока : 15,6 Кбайт (0%)
Язык : English
Default : Нет
Forced : Нет
Раздача ведётся путём добавления новых серий; при каждом добавлении создаётся новый торрент.
Чтобы начать докачку новой серии, пользователям необходимо сделать следующее:
1. остановить скачивание,
2. удалить старый торрент у себя из клиента (старые серии удалять не надо),
3. скачать новый торрент и запустить его у себя в клиенте вместо старого, при этом указать клиенту путь в старую папку, куда и должно происходить скачивание новых серий.

Ваш клиент при этом должен произвести хеширование (проверку) старой папки (если не производит сам - помогите ему сделать это), и будет докачивать только те серии которых у вас ещё нет. Старые серии при этом не удаляются, а продолжают раздаваться!

Eсли вы уже удалили старые серии, то предотвратить повторную закачку старых серий можно, отжав галочку в соответствующих местах при запуске нового торрента. По возможности, желательно не удалять старые серии как можно дольше, чтобы релизёр не столько продолжал раздавать старые серии, а смог сконцентрироваться на новых.

Совет для тех, кто не хочет ждать перехеширования:
Создайте ещё одну папку рядом с папкой сериала (рядом, а не в ней!!!). Каждую новую серию после удачной загрузки копируйте в новую папку так чтобы ваша основная папка всегда была пуста. Когда ваш новый торрент предложит вам закачать все файлы, выберете только последнюю. Для сидирования же укажите адрес новой папки.

Как закачать отдельный файл из торрента или докачать ранее пропущенные файлы торрента!
1. Открыть торрент
2. Снять галки с тех файлов торрента, которые мы не хотим закачивать. Оставляем только на нужных нам файлах (файле).
3. Нажать О.К.

В клиенте utorrent

Инструкция

1) Открыть торрент


2) Снять галки с тех файлов торрента, которые мы не хотим закачивать:

* либо вручную, снимая с каждого файла галку( скрин №1)
* либо, нажав кнопку "Снять метки (Select None)", сняв сразу со всех файлов(скрин №2)
№1

№2

Оставляем только на нужных нам файлах (файле).

3)Нажать О.К
Приятного просмотра!!!seedbit.cf



Скачать Тредстоун через торрент https://b.radikal.ru/b06/1911/2e/8168300e510e.png Скачать фильм Тредстоун через торрент бесплантно в хорошем качестве Описание:Секретная программа ЦРУ «Тредстоун» превращает оперативников в смертоносных убийц с помощью модификаций поведения. Несколько ... 7.2 10 6
Торрент: Зарегистрирован [2019-11-14 20:13] · скачан: 6 раз
Статус: √ проверено
Размер: 7.53 GB
Как cкачать? Как скачать Тредстоун через торрент | qTorrent

% Раздел Тема Автор DL S | L
Зарубежные сериалы [ 7.94 GB ] Тредстоун / Treadstone / Сезон: 1 / Серии: 1-5 из 10 [2019 WEB-DL 720p] [MVO] killermax2013 Скачать
1 | 0
Зарубежные сериалы [ 15.34 GB ] Тредстоун / Treadstone / Сезон: 1 / Серии: 1-5 из 10 [2019 WEB-DL 1080p] [MVO] killermax2013 Скачать
5 | 3
Зарубежные сериалы [ 3.18 GB ] Тредстоун / Treadstone / Сезон: 1 / Серии: 1-5 из 10 [2019 WEB-DLRip] MVO [AlexFilm] - OlLanDGroup Skandar2019 Скачать
5 | 1
Зарубежные сериалы [ 7.94 GB ] Тредстоун / Treadstone / Сезон: 1 / Серии: 1-5 из 10 [2019 WEBRip 720p] MVO [NewStudio] bober100 Скачать
3 | 1
Зарубежные сериалы [ 16.48 GB ] Тредстоун / Treadstone / Сезон: 1 / Серии: 1-5 из 10 [2019 WEB-DL 1080p] 3x[MVO] killermax2013 Скачать
2 | 1
Зарубежные сериалы [ 2.71 GB ] Тредстоун / Treadstone / Сезон: 1 / Серии: 1-5 из 10 [2019 WEBRip] [MVO] killermax2013 Скачать
4 | 1
Зарубежные сериалы [ 14.93 GB ] Тредстоун / Treadstone / Сезон: 1 / Серии: 1-5 из 10 [2019 WEB-DL 1080p] MVO [Jaskier] bober100 Скачать
2 | 0


>> Регистрируемся здесь <<






Отзывы и комментарии о схеме читаем и пишем здесь: ---> Отзывы и комментарии о схеме

Новые благодарочки в телеграм довольных пользователей:
скриншот   скриншот   скриншот   скриншот   скриншот
    Дорогой пользователь! Огромная просьба, поблагодарите релизера, оцените раздачу и оставьте свои комментарий, если Вы скачали Тредстоун через торрент бесплатно! Внесите свою лепту в развитие PiratBit!
    Комментировать посты могут только пользователи прошедшие не сложную регистрацию
    Показать сообщения:    

    Тредстоун через торрент
    Скачать бесплатно Тредстоун
    Тредстоун скачать торрент
    Тредстоун смотреть онлайн
    Cкачать фильм Тредстоун бесплатно
    Тредстоун скачать торрент в хорошем качестве
    Тредстоун смотреть онлайн бесплатно в хорошем качестве


    Вы не можете начинать темы
    Вы не можете отвечать на сообщения
    Вы не можете редактировать свои сообщения
    Вы не можете удалять свои сообщения
    Вы не можете голосовать в опросах
    Вы не можете прикреплять файлы к сообщениям
    Вы можете скачивать файлы