новый адрес
Ссылка на приватное зеркало всего за 1$. Внимание количество ограничено!!!

iTunes

1+1

iTunes

мы

WEB-DL

1

iTunes

Чернобыль

iTunes

Ральф против интернета

Лицензия

ПШазам

Лицензия

Оно 2

Лицензия

30
pack

Вам бонус

ВАЖНО

!!Акция!!

Alien_RageХит недели

RePack

Resident Evil 21

ИГРА 18+

pack

RePack

jed

!!Акция!!

Alien_Rage

RePack

fifa19

RePack

Assassins Creed: Odyssey

RePack

NEED FOR SPEED™ PAYBACK

3 сезон

9 сезон

Бесстыжие 9 сезон

Все сериалы

все сериалы на PB.wtf

RePack

FAR CRY 5
Ребята, катастрофически не хватает 1900р. для оплаты серверов за Октябрь (всвязи с блокировками трафик упал в 3 раза), 1-2р., выручайте.
  

Судная ночь / The Purge / Сезон: 2 / Серии: 1-8 из 10 (Энтони Хемингуэй) [2019, ужасы, фантастика, боевик, триллер, WEB-DLRip] MVO [Jaskier] seedbit.cf

Судная ночь через торрент seedbit.cf

Раздают: 1 [ 0 KB/s ] Качают: 1 [ 0 KB/s ]
Размер: 3.91 GB | Добавлен: 6 д. назад | Торрент скачан:8 раз
Скачать  

18-10-2019 16:25 Судная ночь Скачать торрент  

Судная ночь / The Purge

Год выпуска: 2019
Страна: США
Жанр: ужасы, фантастика, боевик, триллер
Продолжительность: ~ 00:42:00
Перевод: Профессиональный (многоголосый закадровый) | Jaskier
Субтитры: отсутствуют

Режиссёр: Энтони Хемингуэй, Нина Лопес-Коррадо, Майкл Нанкин

В ролях: Гэбриел Чаварриа, Джессика Гарза, Ханна Эмили Андерсон, Колин Вуделл, Рид Даймонд, Лили Симмонс, Паулина Гальвес, Эллисон Кинг, Аманда Уоррен, Андреа Франкл

Описание: Предыстория самой первой Судной ночи – ежегодной 12-часовой «чистки», когда перестают действовать законы. Как Америка дошла до того, чтобы утвердить ночь массовых расправ и свирепой вседозволенности?

rating

Качество: WEB-DLRip
Формат: AVI

Видео: XviD, ~ 1400 kbps, 704x352, 23.976 fps
Аудио 1: MP3, 48,0 КГц, 2 ch, 128 kbps - RUS
Аудио 2: MP3, 48,0 КГц, 2 ch, 128 kbps - ENG


Реклама: аудио, два раза в начале и в конце по 13 секунд
Общее
Полное имя                               : V:ONGOING\The.Purge. Season 2 (400p l Jaskier)\The.Purge.S02E01.400p.Jaskier.avi
Формат                                   : AVI
Формат/Информация                        : Audio Video Interleave
Размер файла                             : 503 Мбайт
Продолжительность                        : 42 м.
Общий поток                              : 1670 Кбит/сек
Программа кодирования                    : VirtualDubMod 1.5.10.3 | www.virtualdub-fr.org || (build 2550/release)
Библиотека кодирования                   : VirtualDubMod build 2550/release

Видео
Идентификатор                            : 0
Формат                                   : MPEG-4 Visual
Профиль формата                          : Advanced Simple@L5
Параметр BVOP формата                    : 2
Параметр QPel формата                    : Нет
Параметр GMC формата                     : Без точки перехода
Параметр матрицы формата                 : Выборочная
Идентификатор кодека                     : XVID
Идентификатор кодека/Подсказка           : XviD
Продолжительность                        : 42 м.
Битрейт                                  : 1400 Кбит/сек
Ширина                                   : 704 пикселя
Высота                                   : 352 пикселя
Соотношение сторон                       : 2,000
Частота кадров                           : 23,976 (23976/1000) кадра/сек
Цветовое пространство                    : YUV
Субдискретизация насыщенности            : 4:2:0
Битовая глубина                          : 8 бит
Тип развёртки                            : Прогрессивная
Метод сжатия                             : С потерями
Бит/(Пиксели*Кадры)                      : 0.236
Размер потока                            : 422 Мбайт (84%)
Библиотека кодирования                   : XviD 73

Аудио #1
Идентификатор                            : 1
Формат                                   : MPEG Audio
Версия формата                           : Version 1
Профиль формата                          : Layer 3
Режим                                    : Joint stereo
Идентификатор кодека                     : 55
Идентификатор кодека/Подсказка           : MP3
Продолжительность                        : 42 м.
Вид битрейта                             : Постоянный
Битрейт                                  : 128 Кбит/сек
Каналы                                   : 2 канала
Частота                                  : 48,0 КГц
Метод сжатия                             : С потерями
Размер потока                            : 38,6 Мбайт (8%)
Выравнивание                             : Соединение по промежуткам
Продолжительность промежутка             : 42  мс. (1,00 видеокадр)
Время предзагрузки промежутка            : 504  мс.

Аудио #2
Идентификатор                            : 2
Формат                                   : MPEG Audio
Версия формата                           : Version 1
Профиль формата                          : Layer 3
Режим                                    : Joint stereo
Расширение режима                        : MS Stereo
Идентификатор кодека                     : 55
Идентификатор кодека/Подсказка           : MP3
Продолжительность                        : 42 м.
Вид битрейта                             : Постоянный
Битрейт                                  : 128 Кбит/сек
Каналы                                   : 2 канала
Частота                                  : 48,0 КГц
Метод сжатия                             : С потерями
Размер потока                            : 38,6 Мбайт (8%)
Выравнивание                             : Соединение по промежуткам
Продолжительность промежутка             : 42  мс. (1,00 видеокадр)
Время предзагрузки промежутка            : 504  мс.[/code]
Когда раздача ведётся путём добавления новых серий, при каждом добавлении создётся новый торрент. Чтобы начать докачку новой серии, пользователям необходимо сделать следующее:
(1) остановить скачивание,
(2) удалить старый торрент у себя из клиента (старые серии удалять не надо),
(3) скачать новый торрент и запустить его у себя в клиенте вместо старого, при этом указать клиенту путь в старую папку, куда и должно происходить скачивание новых серий.
Ваш клиент при этом должен произвести хеширование (проверку) старой папки (если не производит сам - помогите ему сделать это), и будет докачивать только те серии, которых у вас ещё нет. Старые серии при этом не удаляются, а продолжают раздаваться!
Eсли вы уже удалили старые серии, то предотвратить повторную закачку старых серий можно, отжав галочку в соответсвующих местах при запуске нового торрента. По возможности, желательно не удалять старые серии как можно дольше, чтобы релизёр не столько продолжал раздавать старые серии, а смог сконцентрироваться на новых.
seedbit.cf



Скачать Судная ночь через торрент https://i90.fastpic.ru/big/2019/1018/0e/69a1e17745fac28693c397adabfa770e.png Скачать фильм Судная ночь через торрент бесплантно в хорошем качестве Описание: Предыстория самой первой Судной ночи – ежегодной 12-часовой «чистки», когда перестают действовать законы. Как Америка дошла до ... 7 10 3
Торрент: Зарегистрирован [2019-12-06 12:44] · скачан: 8 раз
Статус: √ проверено
Размер: 3.91 GB
Как cкачать? Как скачать Судная ночь через торрент | qTorrent

% Раздел Тема Автор DL S | L
Зарубежные сериалы [ 22.45 GB ] Судная ночь / The Purge / Сезон 2 / Серии 1-8 из 10 [2019 WEB-DL 1080p] MVO [TVShows] bober100 Скачать
1 | 1
Зарубежные сериалы [ 10.9 GB ] Судная ночь / The Purge / Сезон 2 / Серии 1-8 из 10 [2019 WEB-DL 720p] MVO [TVShows] bober100 Скачать
1 | 2
Зарубежные сериалы [ 21.99 GB ] Судная ночь / The Purge / Сезон: 2 / Серии: 1-8 из 10 [2019 WEB-DL 1080p] MVO [Jaskier] bober100 Скачать
2 | 2
Зарубежные сериалы [ 10.3 GB ] Судная ночь / The Purge / Сезон: 2 / Серии: 1-8 из 10 [2019 WEB-DL 720p] MVO [Jaskier] bober100 Скачать
2 | 1

28-11-2019 20:33  

Отключить всю рекламу на сайте

    Дорогой пользователь! Огромная просьба, поблагодарите релизера, оцените раздачу и оставьте свои комментарий, если Вы скачали Судная ночь через торрент бесплатно! Внесите свою лепту в развитие PiratBit!
    Комментировать посты могут только пользователи прошедшие не сложную регистрацию
    Показать сообщения:    

    Судная ночь через торрент
    Скачать бесплатно Судная ночь
    Судная ночь скачать торрент
    Судная ночь смотреть онлайн
    Cкачать фильм Судная ночь бесплатно
    Судная ночь скачать торрент в хорошем качестве
    Судная ночь смотреть онлайн бесплатно в хорошем качестве


    Вы не можете начинать темы
    Вы не можете отвечать на сообщения
    Вы не можете редактировать свои сообщения
    Вы не можете удалять свои сообщения
    Вы не можете голосовать в опросах
    Вы не можете прикреплять файлы к сообщениям
    Вы можете скачивать файлы