новый адрес
Мега распродажа FORZA HORIZON 4 ULTIMATE+ВСЕ DLC+ОНЛАЙН всего за 499р. 349 руб. (супер цена). Внимание количество ограничено!!!

iTunes

1+1

iTunes

мы

iTunes

1

iTunes

Чернобыль

iTunes

Ральф против интернета

Лицензия

ПШазам

Лицензия

Оно 2

Лицензия

30
pack

ВАЖНО

!!Акция!!

Alien_RageХит недели

RePack

Resident Evil 21

ИГРА 18+

pack

RePack

jed

!!Акция!!

Alien_Rage

RePack

fifa19

RePack

Assassins Creed: Odyssey

RePack

NEED FOR SPEED™ PAYBACK

3 сезон

9 сезон

Бесстыжие 9 сезон

Все сериалы

все сериалы на PB.wtf

RePack

FAR CRY 5
Ребята, катастрофически не хватает 1900р. для оплаты серверов за Октябрь (всвязи с блокировками трафик упал в 3 раза), 1-2р., выручайте.
  

Майя МС / Майянцы / Mayans M.C. / Сезон: 2 / Серия: 1-10 из 10 (Норберто Барба, Гай Ферленд, Курт Саттер) [2019, Триллер, драма, криминал, WEB-DL 1080p] MVO [LostFilm] seedbit.cf

Майя МС через торрент seedbit.cf

Раздают: 1 [ 1 MB/s ] Качают: 1 [ 0 KB/s ]
Размер: 41.88 GB | Добавлен: 12 д. назад | Торрент скачан:9 раз
Скачать  

07-09-2019 05:44 Майя МС Скачать торрент  

Майя МС | Майянцы | Mayans M.C. Год выпуска: 2019
Страна: США
Жанр: Триллер, драма, криминал
Продолжительность: ~01:10:00
Перевод: Профессиональный (многоголосый закадровый) | LostFilm
Субтитры: Русские (Forced |«LostFilm»|, английские (Full, SDH)

Режиссёр: Норберто Барба, Гай Ферленд, Курт Саттер

В ролях: Дж.Д. Пардо, Клэйтон Карденас, Эдвард Джеймс Олмос, Сара Болгер, Майкл Ирби, Карла Баратта, Антонио Харамильо, Рауль Трухильо, Ричард Кебрал, Дэниэл Пино и др.

Описание: Спин-офф «Сынов анархии» повествует о байкерском клубе «Майянцы», ведущем дела на границе Мексики и Калифорнии. Главный герой истории — Эзекиэль «Эз» Рейес, после отсидки вернувшийся на малую родину. Парень вынужден приспосабливаться к своему новому статусу человека вне закона в родном городе, где у него когда-то были все шансы на исполнение заветной американской мечты.



Качество: WEB-DL 1080p
Формат: MKV

Видео: AVC, 1920x1080 (16:9), 23.976 fps, ~ 13 Mbps
Аудио №1: AC3, 48,0 kHz, 6 ch, 640 kbps | LostFilm
Аудио №2: AC3, 48,0 kHz, 6 ch, 640 kbps | Original


Реклама: Отсутствует| Чистый видеоряд (без заставки и логотипа)!

Исходник: Mayans.M.C.S02.1080p.AMZN.WEB-DL.DDP5.1.x264-NTb
01. Xbalanque / Воин-близнец
02. Xaman-Ek / Ксаман-Эк
03. Camazotz / Камазотц
04. Lahun Chan / Лахун Чан
05. Xquic / Шкик
06. Muluc / Мулук
07. Tohil / Тохиль
08. Kukulkan / Кукулькан
09. Itzam-Ye / Итцам-Йе
10. Hunahpu / Хунахпу
Аудио №1 получено наложением выделенных голосов от «LostFilm» на центр оригинального EAC3
Постер, работа со звуком и субтитрами: itunestv@eniahd.
Complete name : D:\Mayans_M.C._(s02)_LostFilm_1080p\Mayans.M.C.2019.S02E01.Xbalanque.1080p.AMZN.WEB-DL.DD5.1.x264-NTb_EniaHD.mkv
Format : Matroska
Format version : Version 4
File size : 5.53 GiB
Duration : 53 min 55 s
Overall bit rate : 14.7 Mb/s
Encoded date : UTC 2019-09-06 08:03:26
Writing application : mkvmerge v31.0.0 ('Dolores In A Shoestand') 64-bit
Writing library : libebml v1.3.6 + libmatroska v1.4.9

Video
ID : 1
Format : AVC
Format/Info : Advanced Video Codec
Format profile : High@L4
Format settings : CABAC / 4 Ref Frames
Format settings, CABAC : Yes
Format settings, Reference : 4 frames
Codec ID : V_MPEG4/ISO/AVC
Duration : 53 min 55 s
Bit rate : 13.4 Mb/s
Width : 1 920 pixels
Height : 1 080 pixels
Display aspect ratio : 16:9
Frame rate mode : Constant
Frame rate : 23.976 (24000/1001) FPS
Color space : YUV
Chroma subsampling : 4:2:0
Bit depth : 8 bits
Scan type : Progressive
Bits/(Pixel*Frame) : 0.270
Stream size : 5.05 GiB (91%)
Title : Release by EniaHD
Default : Yes
Forced : No
Color range : Limited
Color primaries : BT.709
Transfer characteristics : BT.709
Matrix coefficients : BT.709

Audio #1
ID : 2
Format : AC-3
Format/Info : Audio Coding 3
Commercial name : Dolby Digital
Codec ID : A_AC3
Duration : 53 min 55 s
Bit rate mode : Constant
Bit rate : 640 kb/s
Channel(s) : 6 channels
Channel layout : L R C LFE Ls Rs
Sampling rate : 48.0 kHz
Frame rate : 31.250 FPS (1536 SPF)
Bit depth : 16 bits
Compression mode : Lossy
Delay relative to video : 29 ms
Stream size : 247 MiB (4%)
Title : LostFilm
Language : Russian
Service kind : Complete Main
Default : Yes
Forced : No

Audio #2
ID : 3
Format : AC-3
Format/Info : Audio Coding 3
Commercial name : Dolby Digital
Codec ID : A_AC3
Duration : 53 min 55 s
Bit rate mode : Constant
Bit rate : 640 kb/s
Channel(s) : 6 channels
Channel layout : L R C LFE Ls Rs
Sampling rate : 48.0 kHz
Frame rate : 31.250 FPS (1536 SPF)
Bit depth : 16 bits
Compression mode : Lossy
Delay relative to video : 29 ms
Stream size : 247 MiB (4%)
Language : English
Service kind : Complete Main
Default : No
Forced : No

Text #1
ID : 4
Format : UTF-8
Codec ID : S_TEXT/UTF8
Codec ID/Info : UTF-8 Plain Text
Duration : 51 min 26 s
Bit rate : 6 b/s
Count of elements : 67
Stream size : 2.59 KiB (0%)
Title : Forced |LostFilm|
Language : Russian
Default : Yes
Forced : No

Text #2
ID : 5
Format : UTF-8
Codec ID : S_TEXT/UTF8
Codec ID/Info : UTF-8 Plain Text
Duration : 52 min 55 s
Bit rate : 46 b/s
Count of elements : 676
Stream size : 18.1 KiB (0%)
Title : Full
Language : English
Default : No
Forced : No

Text #3
ID : 6
Format : UTF-8
Codec ID : S_TEXT/UTF8
Codec ID/Info : UTF-8 Plain Text
Duration : 53 min 48 s
Bit rate : 53 b/s
Count of elements : 899
Stream size : 21.2 KiB (0%)
Title : SDH
Language : English
Default : No
Forced : No
При каждом добавлении создаётся новый торрент. Чтобы начать докачку новой серии, пользователям необходимо сделать следующее:
- остановить скачивание;
- удалить старый торрент у себя из клиента (старые серии удалять не надо);
- скачать новый торрент и запустить его у себя в клиенте вместо старого, при этом указать клиенту путь в старую папку, куда и должно происходить скачивание новых серий.
seedbit.cf



Скачать Майя МС через торрент https://a.radikal.ru/a03/1909/6f/95b4e5478e2c.png Скачать фильм Майя МС через торрент бесплантно в хорошем качестве Описание: Спин-офф «Сынов анархии» повествует о байкерском клубе «Майянцы», ведущем дела на границе Мексики и Калифорнии. Главный герой ... 5.5 10 4
Торрент: Зарегистрирован [2019-11-08 16:13] · скачан: 9 раз
Статус: √ проверено
Размер: 41.88 GB
Как cкачать? Как скачать Майя МС через торрент | qTorrent

% Раздел Тема Автор DL S | L
Зарубежные сериалы [ 8.88 GB ] Майянцы / Майя МС / Mayans M.C. / Сезон: 2 / Серии: 1-10 из 10 [2019 WEBRip] MVO [TVShows] bober100 Скачать
1 | 0
Зарубежные сериалы [ 7.39 GB ] Майя МС / Майянцы / Mayans M.C. / Сезон: 2 / Серии: 1-10 из 10 [2019 WEB-DLRip] MVO [LostFilm] bober100 Скачать
4 | 1
Зарубежные сериалы [ 21.95 GB ] Майя МС / Майянцы / Mayans M.C. / Сезон: 2 / Серия: 1-10 из 10 [2019 WEB-DL 720p] MVO [TVShows] bober100 Скачать
1 | 0
Зарубежные сериалы [ 47.21 GB ] Майя МС / Майянцы / Mayans M.C. / Сезон: 2 / Серия: 1-10 из 10 [2019 WEB-DL 1080p] MVO [TVShows] bober100 Скачать
2 | 0
Зарубежные сериалы [ 25.02 GB ] Майя МС / Майянцы / Mayans M.C. / Сезон: 2 / Серии: 1-10 из 10 [2019 WEB-DL 720p] MVO [LostFilm] bober100 Скачать
4 | 4


>> Регистрируемся здесь <<






Отзывы и комментарии о схеме читаем и пишем здесь: ---> Отзывы и комментарии о схеме

Новые благодарочки в телеграм довольных пользователей:
скриншот   скриншот   скриншот   скриншот   скриншот
    Дорогой пользователь! Огромная просьба, поблагодарите релизера, оцените раздачу и оставьте свои комментарий, если Вы скачали Майя МС через торрент бесплатно! Внесите свою лепту в развитие PiratBit!
    Комментировать посты могут только пользователи прошедшие не сложную регистрацию
    Показать сообщения:    

    Майя МС через торрент
    Скачать бесплатно Майя МС
    Майя МС скачать торрент
    Майя МС смотреть онлайн
    Cкачать фильм Майя МС бесплатно
    Майя МС скачать торрент в хорошем качестве
    Майя МС смотреть онлайн бесплатно в хорошем качестве


    Вы не можете начинать темы
    Вы не можете отвечать на сообщения
    Вы не можете редактировать свои сообщения
    Вы не можете удалять свои сообщения
    Вы не можете голосовать в опросах
    Вы не можете прикреплять файлы к сообщениям
    Вы можете скачивать файлы