Ссылка на приватное зеркало всего за 1$. Внимание количество ограничено!!!

iTunes

1+1

iTunes

мы

MV0

1

WEB-DLRip

Джокер

Пифагор

Ведьмак / The Witcher сериал

iTunes

ПШазам

iTunes

Оно 2

iTunes

30
pack

Вам бонус

ВАЖНО

!!Акция!!

Alien_RageХит недели

RePack

Resident Evil 21

ИГРА 18+

pack

RePack

jed

!!Акция!!

Alien_Rage

RePack

fifa19

RePack

Assassins Creed: Odyssey

RePack

NEED FOR SPEED™ PAYBACK

4 сезон

9 сезон

Бесстыжие 9 сезон

Все сериалы

все сериалы на PB.wtf

RePack

FAR CRY 5
  

Бесстыжие / Бесстыдники / Shameless (US) / Сезон: 9 / Серии: 1-14 из 14 (Марк Майлод, Мими Ледер, Энтони Хемингуэй) [2018, драма, комедия, WEB-DLRip] MVO [AlexFilm] seedbit.cf

Бесстыжие через торрент seedbit.cf

Раздают: 5 [ 45 KB/s ] Качают: 1 [ 0 KB/s ]
Размер: 9.3 GB | Добавлен: 11 мес. назад | Торрент скачан:321 раз
Скачать  

10-09-2018 04:12 Бесстыжие Скачать торрент  

Бесстыжие / Бесстыдники / Shameless (US)
Год выпуска: 2018
Страна: США
Жанр: драма, комедия
Продолжительность: ~ 00:57:00
Перевод: Профессиональный многоголосый |
Субтитры: отсутствуют

Режиссер: Марк Майлод, Мими Ледер, Энтони Хемингуэй

rating

В ролях:

Эмми Россам, Уильям Х. Мэйси, Шанола Хэмптон, Стив Хоуи, Джереми Аллен Уайт, Камерон Монахэн, Эмма Кинни, Итан Каткоски, Джоан Кьюсак, Лаура Уиггинс

Описание:

Американский ремейк британского сериала, повествующий о взбалмошной многодетной семье Галлахеров и их соседях, которые веселятся, попадают в самые невероятные ситуации и пытаются выжить в этом мире всеми возможными средствами, но при этом как можно меньше работая.

Качество: WEB-DLRip
Формат: AVI

Видео: XviD, ~ 1400 Кбит/с, 720x400
Аудио: Russian: 48 kHz, MP3, 2/0 (L,R) ch, ~128 kbps avg |Многоголосый закадровый, AlexFilm|
Аудио: English: 48 kHz, MP3, 2/0 (L,R) ch, ~128 kbps avg
скриншот  скриншот  скриншот  скриншот  

Общее
Полное имя : E:\Shameless (US) - Season 9 (AlexFilm) WEB-DLRip\Shameless.US.s09e01.WEB-DLRip.Rus.Eng.AlexFilm.avi
Формат : AVI
Формат/Информация : Audio Video Interleave
Размер файла : 652 Мбайт
Продолжительность : 55 м. 21 с.
Общий поток : 1647 Кбит/сек
Название фильма : Shameless US 9x01 @ AlexFilm
Программа кодирования : VirtualDubMod 1.5.10.2 (build 2540/release)
Библиотека кодирования : VirtualDubMod build 2540/release

Видео
Идентификатор : 0
Формат : MPEG-4 Visual
Профиль формата : Advanced Simple@L5
Параметр BVOP формата : Нет
Параметр QPel формата : Нет
Параметр GMC формата : Без точки перехода
Параметр матрицы формата : Default (MPEG)
Идентификатор кодека : XVID
Идентификатор кодека/Подсказка : XviD
Продолжительность : 55 м. 21 с.
Битрейт : 1378 Кбит/сек
Ширина : 720 пикселей
Высота : 400 пикселей
Соотношение сторон : 16:9
Частота кадров : 23,976 (24000/1001) кадра/сек
Цветовое пространство : YUV
Субдискретизация насыщенности : 4:2:0
Битовая глубина : 8 бит
Тип развёртки : Прогрессивная
Метод сжатия : С потерями
Бит/(Пиксели*Кадры) : 0.199
Размер потока : 545 Мбайт (84%)
Библиотека кодирования : XviD 67

Аудио #1
Идентификатор : 1
Формат : MPEG Audio
Версия формата : Version 1
Профиль формата : Layer 3
Настройки формата : Joint stereo / MS Stereo
Идентификатор кодека : 55
Идентификатор кодека/Подсказка : MP3
Продолжительность : 55 м. 21 с.
Вид битрейта : Постоянный
Битрейт : 128 Кбит/сек
Каналы : 2 канала
Частота : 48,0 КГц
Метод сжатия : С потерями
Размер потока : 50,7 Мбайт (8%)
Выравнивание : Соединение по промежуткам
Продолжительность промежутка : 42 мс. (1,00 видеокадр)
Время предзагрузки промежутка : 504 мс.
Заголовок : Russian (AlexFilm)

Аудио #2
Идентификатор : 2
Формат : MPEG Audio
Версия формата : Version 1
Профиль формата : Layer 3
Настройки формата : Joint stereo / MS Stereo
Идентификатор кодека : 55
Идентификатор кодека/Подсказка : MP3
Продолжительность : 55 м. 21 с.
Вид битрейта : Постоянный
Битрейт : 128 Кбит/сек
Каналы : 2 канала
Частота : 48,0 КГц
Метод сжатия : С потерями
Размер потока : 50,7 Мбайт (8%)
Выравнивание : Соединение по промежуткам
Продолжительность промежутка : 42 мс. (1,00 видеокадр)
Время предзагрузки промежутка : 504 мс.
Заголовок : English

Когда раздача ведётся путём добавления новых серий, при каждом добавлении создётся новый торрент. Чтобы начать докачку новой серии, пользователям необходимо сделать следующее:
(1) остановить скачивание,
(2) удалить старый торрент у себя из клиента (старые серии удалять не надо),
(3) скачать новый торрент и запустить его у себя в клиенте вместо старого, при этом указать клиенту путь в старую папку, куда и должно происходить скачивание новых серий.
Ваш клиент при этом должен произвести хеширование (проверку) старой папки (если не производит сам - помогите ему сделать это), и будет докачивать только те серии, которых у вас ещё нет. Старые серии при этом не удаляются, а продолжают раздаваться!
Eсли вы уже удалили старые серии, то предотвратить повторную закачку старых серий можно, отжав галочку в соответствующих местах при запуске нового торрента. По возможности, желательно не удалять старые серии как можно дольше, чтобы релизер не столько продолжал раздавать старые серии, а смог сконцентрироваться на новых.
seedbit.cf



Скачать Бесстыжие через торрент https://i4.imageban.ru/out/2018/09/09/0e92256c965254ca7d1eeffcaf520b6d.jpg Скачать фильм Бесстыжие через торрент бесплантно в хорошем качестве Описание: Американский ремейк британского сериала, повествующий о взбалмошной многодетной семье Галлахеров и их соседях, которые веселятся, ... 9.4 10 14
Торрент: Зарегистрирован [2019-03-11 18:29] · скачан: 321 раз
Статус: √ проверено
Размер: 9.3 GB
Как cкачать? Как скачать Бесстыжие через торрент | qTorrent

% Раздел Тема Автор DL S | L
Зарубежные сериалы [ 16.8 GB ] Бесстыдники / Бесстыжие / Shameless / Cезон 1 [2011 HDTV 720p] fallen_poet Скачать
1 | 2
Зарубежные сериалы [ 9.45 GB ] Бесстыжие / Бесстыдники / Shameless / Сезон: 10 / Серии: 1-12 из 12 [2019 WEB-DLRip] MVO [AlexFilm] bober100 Скачать
9 | 9
Зарубежные сериалы [ 28.24 GB ] Бесстыжие / Бесстыдники / Shameless / Сезон: 10 / Серии: 1-12 из 12 [2019 WEB-DL 720p] MVO [AlexFilm] bober100 Скачать
4 | 4
Зарубежные сериалы [ 50 GB ] Бесстыжие / Бесстыдники / Shameless / Сезон: 10 / Серия: 1-12 из 12 [2019 WEB-DL 1080p] MVO [AlexFilm] bober100 Скачать
3 | 3
Зарубежные сериалы [ 54.15 GB ] Бесстыжие / Бесстыдники / Shameless / Сезон: 9 / Серии: 1-14 из 14 [2018 WEB-DL 1080p] MVO [AlexFilm] bober100 Скачать
4 | 0
Зарубежные сериалы [ 25.49 GB ] Бесстыжие / Бесстыдники / Shameless / Сезон: 9 / Серии: 1-14 из 14 [2018 WEB-DL 720p] MVO [AlexFilm] bober100 Скачать
2 | 1
Зарубежные сериалы [ 48.24 GB ] Бесстыжие / Бесстыдники / Shameless / Сезон: 6 / Серии: 1-12 из 12 [2016 HDTVRip 1080p] MVO [AlexFilm] bober100 Скачать
1 | 0

28-11-2019 20:33  

Отключить всю рекламу на сайте

    Дорогой пользователь! Огромная просьба, поблагодарите релизера, оцените раздачу и оставьте свои комментарий, если Вы скачали Бесстыжие через торрент бесплатно! Внесите свою лепту в развитие PiratBit!
    Комментировать посты могут только пользователи прошедшие не сложную регистрацию
    Показать сообщения:    

    Бесстыжие через торрент
    Скачать бесплатно Бесстыжие
    Бесстыжие скачать торрент
    Бесстыжие смотреть онлайн
    Cкачать фильм Бесстыжие бесплатно
    Бесстыжие скачать торрент в хорошем качестве
    Бесстыжие смотреть онлайн бесплатно в хорошем качестве


    Вы не можете начинать темы
    Вы не можете отвечать на сообщения
    Вы не можете редактировать свои сообщения
    Вы не можете удалять свои сообщения
    Вы не можете голосовать в опросах
    Вы не можете прикреплять файлы к сообщениям
    Вы можете скачивать файлы