Ссылка на приватное зеркало всего за 1$. Внимание количество ограничено!!!

OK

1+1

iTunes

мы

OK

1

WEB-DLRip

Джокер

Пифагор

Ведьмак / The Witcher сериал

Лицензия

ПШазам

ОК

Оно 2

iTunes

30
pack

Вам бонус

ВАЖНО

!!Акция!!

Alien_RageХит недели

RePack

Resident Evil 21

ИГРА 18+

pack

RePack

jed

!!Акция!!

Alien_Rage

RePack

fifa19

RePack

Assassins Creed: Odyssey

RePack

NEED FOR SPEED™ PAYBACK

4 сезон

9 сезон

Бесстыжие 9 сезон

Все сериалы

все сериалы на PB.wtf

RePack

FAR CRY 5
  

Наша неполная история / Hamari Adhuri Kahaani (Мохит Сури) [2015, драма, BDRip 1080p, Профессиональный (многоголосый) [SDI Media] seedbit.cf

Наша неполная история через торрент seedbit.cf

Размер: 8.57 GB | Добавлен: 4 года 1 мес. назад | Торрент скачан:12 раз
Скачать  

07-12-2015 10:02 Наша неполная история Скачать торрент  


Наша неполная история / Hamari Adhuri Kahaani


ИНФОРМАЦИЯ:
Год выпуска:2015
Страна: Индия
Жанр: драма
Продолжительность: 02:09:08
Перевод: Профессиональный (многоголосый) [SDI Media]
Субтитры: английские, русские (песни),
Режиссер: Мохит Сури

В Ролях:


Эмран Хашми (Aarav Ruparel), Видья Балан (Vasudha), Раджкумар Рао (Hari Prasad), Амала (Rohini), Захари Соффин (Journalist), Madhurima Tuli (Avni), Нарендра Джха (ACP Patil), Намит Дас (Saanjh Prasad grown up), Sarah Khan (Naila), Сухасини Малай (Hari's mother), Prabal Panjabi (Apurva), Удей Чандра

Описание:
Васудха работает флористом в одном из престижных отелей. Арав - бизнесмен, владелец ста восьми отелей, захотел купить еще один - Палас, где работает Васудха. Их встреча неизбежна, но что принесет она после? Любовь, страдания, ненависть? Ответы кроются в прошлом их судеб. Но суждено ли нам узнать всё? Ведь история неполная...

  • Мировая премьера:11 июня 2015

    ТЕХ.ДАННЫЕ:
    Качество: BDRip 1080p
    Формат: MKV
    Видео: AVC, 1920x816 (2.35:1), 8665 kbps, 24 fps, 0,230 bpp
    Аудио №1: русский / AC3 / 2.0 / 48 kHz / 192 kbps / 16 bit ||
    Аудио №2: Hindi / AC3 / 5.1 / 48 kHz / 640 kbps / 16 bit

    General
    Unique ID : 179852185569907620766147847239478632913 (0x874E455EA26CFD93B4E1041749DD61D1)
    Complete name : D:\Торенты\Hamari Adhuri Kahani 2015 Hindi 1080p BluRay x264.Rus.SDI Media.mkv
    Format : Matroska
    Format version : Version 4 / Version 2
    File size : 8.57 GiB
    Duration : 2h 9mn
    Overall bit rate : 9 498 Kbps
    Movie name : ~ jasinpapa ~
    Encoded date : UTC 2015-12-06 16:38:28
    Writing application : mkvmerge v6.6.0 ('The Edge Of The In Between') built on Dec 1 2013 17:55:00
    Writing library : libebml v1.3.0 + libmatroska v1.4.1

    Video
    ID : 1
    Format : AVC
    Format/Info : Advanced Video Codec
    Format profile : High@L4.1
    Format settings, CABAC : Yes
    Format settings, ReFrames : 5 frames
    Codec ID : V_MPEG4/ISO/AVC
    Duration : 2h 9mn
    Bit rate : 8 665 Kbps
    Width : 1 920 pixels
    Height : 816 pixels
    Display aspect ratio : 2.35:1
    Frame rate : 24.000 fps
    Color space : YUV
    Chroma subsampling : 4:2:0
    Bit depth : 8 bits
    Scan type : Progressive
    Bits/(Pixel*Frame) : 0.230
    Stream size : 7.65 GiB (89%)
    Writing library : x264 core 146 r2538 121396c
    Encoding settings : cabac=1 / ref=5 / deblock=1:-1:-1 / analyse=0x3:0x133 / me=umh / subme=9 / psy=1 / psy_rd=1.00:0.15 / mixed_ref=1 / me_range=16 / chroma_me=1 / trellis=2 / 8x8dct=1 / cqm=0 / deadzone=21,11 / fast_pskip=0 / chroma_qp_offset=-3 / threads=12 / lookahead_threads=1 / sliced_threads=0 / nr=1000 / decimate=1 / interlaced=0 / bluray_compat=0 / constrained_intra=0 / bframes=3 / b_pyramid=2 / b_adapt=2 / b_bias=0 / direct=3 / weightb=1 / open_gop=0 / weightp=2 / keyint=250 / keyint_min=24 / scenecut=40 / intra_refresh=0 / rc_lookahead=60 / rc=2pass / mbtree=1 / bitrate=8665 / ratetol=1.0 / qcomp=0.60 / qpmin=0 / qpmax=69 / qpstep=4 / cplxblur=20.0 / qblur=0.5 / ip_ratio=1.40 / aq=1:1.00
    Default : Yes
    Forced : No

    Audio #1
    ID : 2
    Format : AC-3
    Format/Info : Audio Coding 3
    Mode extension : CM (complete main)
    Codec ID : A_AC3
    Duration : 2h 9mn
    Bit rate mode : Constant
    Bit rate : 192 Kbps
    Channel(s) : 2 channels
    Channel positions : Front: L R
    Sampling rate : 48.0 KHz
    Bit depth : 16 bits
    Compression mode : Lossy
    Stream size : 177 MiB (2%)
    Title : SDI Media
    Language : Russian
    Default : Yes
    Forced : Yes

    Audio #2
    ID : 3
    Format : AC-3
    Format/Info : Audio Coding 3
    Mode extension : CM (complete main)
    Codec ID : A_AC3
    Duration : 2h 9mn
    Bit rate mode : Constant
    Bit rate : 640 Kbps
    Channel(s) : 6 channels
    Channel positions : Front: L C R, Side: L R, LFE
    Sampling rate : 48.0 KHz
    Bit depth : 16 bits
    Compression mode : Lossy
    Stream size : 591 MiB (7%)
    Language : Hindi
    Default : No
    Forced : No

    Text #1
    ID : 4
    Format : UTF-8
    Codec ID : S_TEXT/UTF8
    Codec ID/Info : UTF-8 Plain Text
    Language : English
    Default : No
    Forced : No

    Text #2
    ID : 5
    Format : UTF-8
    Codec ID : S_TEXT/UTF8
    Codec ID/Info : UTF-8 Plain Text
    Title : песни
    Language : Russian
    Default : Yes
    Forced : No
    Скриншоты:

    © Оформление by .::Ворон::.
    seedbit.cf



  • Скачать Наша неполная история через торрент http://pic.kartinco.top/images/6/ordi9.jpg Скачать фильм Наша неполная история через торрент бесплантно в хорошем качестве Описание: Васудха работает флористом в одном из престижных отелей. Арав - бизнесмен, владелец ста восьми отелей, захотел купить еще один - ... 10 10 2
    Торрент: Зарегистрирован [2015-12-07 10:02] · скачан: 12 раз
    Статус: √ проверено
    Размер: 8.57 GB
    Как cкачать? Как скачать Наша неполная история через торрент | qTorrent

    % Раздел Тема Автор DL S | L
    Индийское кино [ 1.75 GB ] Наша неполная история / Hamari Adhuri Kahaani [2015 HDRip [SDI Media] Ворон Скачать
    1 | 0

    28-11-2019 20:33  

    Отключить всю рекламу на сайте

      Дорогой пользователь! Огромная просьба, поблагодарите релизера, оцените раздачу и оставьте свои комментарий, если Вы скачали Наша неполная история через торрент бесплатно! Внесите свою лепту в развитие PiratBit!
      Комментировать посты могут только пользователи прошедшие не сложную регистрацию
      Показать сообщения:    

      Наша неполная история через торрент
      Скачать бесплатно Наша неполная история
      Наша неполная история скачать торрент
      Наша неполная история смотреть онлайн
      Cкачать фильм Наша неполная история бесплатно
      Наша неполная история скачать торрент в хорошем качестве
      Наша неполная история смотреть онлайн бесплатно в хорошем качестве


      Вы не можете начинать темы
      Вы не можете отвечать на сообщения
      Вы не можете редактировать свои сообщения
      Вы не можете удалять свои сообщения
      Вы не можете голосовать в опросах
      Вы не можете прикреплять файлы к сообщениям
      Вы можете скачивать файлы