новый адрес
Ссылка на приватное зеркало всего за 1$. Внимание количество ограничено!!!

iTunes

1+1

iTunes

мы

WEB-DL

1

iTunes

Чернобыль

iTunes

Ральф против интернета

Лицензия

ПШазам

Лицензия

Оно 2

Лицензия

30
pack

Вам бонус

ВАЖНО

!!Акция!!

Alien_RageХит недели

RePack

Resident Evil 21

ИГРА 18+

pack

RePack

jed

!!Акция!!

Alien_Rage

RePack

fifa19

RePack

Assassins Creed: Odyssey

RePack

NEED FOR SPEED™ PAYBACK

3 сезон

9 сезон

Бесстыжие 9 сезон

Все сериалы

все сериалы на PB.wtf

RePack

FAR CRY 5
Ребята, катастрофически не хватает 1900р. для оплаты серверов за Октябрь (всвязи с блокировками трафик упал в 3 раза), 1-2р., выручайте.
  

Бесстыжие / Бесстыдники / Shameless (US) / Сезон: 10 / Серии: 1-4 из 12 (Марк Майлод, Кристофер Чулак, Джон Уэллс) [2019,драма, комедия, WEB-DL 720p] MVO [AlexFilm] seedbit.cf

Бесстыжие через торрент seedbit.cf

Раздают: 3 [ 19 KB/s ] Качают: 4 [ 0 KB/s ]
Размер: 9.67 GB | Добавлен: 6 д. назад | Торрент скачан:12 раз
Скачать  

11-11-2019 15:14 Бесстыжие Скачать торрент  

Бесстыжие | Бесстыдники | Shameless Год выпуска: 2019
Страна: США
Жанр: Драма, комедия
Продолжительность: ~00:55:00
Перевод: Профессиональный (многоголосый закадровый) | AlexFilm
Субтитры: Русские (Full |«FOCS»|, английские (SDH)

Режиссёр: Марк Майлод, Кристофер Чулак, Джон Уэллс

В ролях: Уильям Х. Мэйси, Камерон Монахэн, Джереми Аллен Уайт, Эмма Кинни, Итэн Каткоски, Блейк Александр Джонсон, Бреннан Кэйн Джонсон, Шанола Хэмптон, Стив Хоуи, Джоан Кьюсак, Ноэль Фишер, Эмма Гринвелл, Джэйк Макдорман и др.

Описание: В новом сезоне Фрэнка ждут неожиданные испытания, справиться с которыми ему поможет только семья. Галлагеры неизменно сплачиваются, когда кому-то из них грозят по настоящему серьёзные неприятности.



Качество: WEB-DL 720p
Формат: MKV

Видео: AVC, 1280x720 (16:9), 23.976 fps, ~5600 Kbps
Аудио №1: AC3, 48,0 kHz, 2 ch, 192 kbps | AlexFilm
Аудио №2: AC3, 48,0 kHz, 6 ch, 640 kbps | Original


Реклама: Отсутствует
Исходник: Shameless.US.S10.720p.AMZN.WEB-DL.DDP5.1.x264-NTb
01. We Few, We Lucky Few, We Band Of Gallaghers! / Нас немного, мы счастливы, мы банда Галлагеров!
Complete name : F:\Shameless.US_s10_720p\Shameless.s10e01.WEB-DL.720p_EniaHD.mkv
Format : Matroska
Format version : Version 2
File size : 2.59 GiB
Duration : 56 min 58 s
Overall bit rate : 6 504 kb/s
Movie name : Shameless 10x01 (We Few, We Lucky Few, We Band of Gallaghers) - release by Kastiel for EniaHD
Encoded date : UTC 2019-11-11 13:35:22
Writing application : mkvmerge v4.9.1 ('Ich will') сборка от Jul 11 2011 23:53:15
Writing library : libebml v1.2.1 + libmatroska v1.1.1

Video
ID : 1
Format : AVC
Format/Info : Advanced Video Codec
Format profile : High@L3.1
Format settings : CABAC / 4 Ref Frames
Format settings, CABAC : Yes
Format settings, Reference : 4 frames
Codec ID : V_MPEG4/ISO/AVC
Duration : 56 min 58 s
Bit rate mode : Constant
Bit rate : 5 543 kb/s
Nominal bit rate : 6 000 kb/s
Width : 1 280 pixels
Height : 720 pixels
Display aspect ratio : 16:9
Frame rate mode : Constant
Frame rate : 23.976 (24000/1001) FPS
Color space : YUV
Chroma subsampling : 4:2:0
Bit depth : 8 bits
Scan type : Progressive
Bits/(Pixel*Frame) : 0.251
Stream size : 2.21 GiB (85%)
Default : Yes
Forced : No
Color range : Limited
Color primaries : BT.709
Transfer characteristics : BT.709
Matrix coefficients : BT.709

Audio #1
ID : 2
Format : AC-3
Format/Info : Audio Coding 3
Commercial name : Dolby Digital
Codec ID : A_AC3
Duration : 56 min 58 s
Bit rate mode : Constant
Bit rate : 192 kb/s
Channel(s) : 2 channels
Channel layout : L R
Sampling rate : 48.0 kHz
Frame rate : 31.250 FPS (1536 SPF)
Bit depth : 16 bits
Compression mode : Lossy
Stream size : 78.2 MiB (3%)
Title : DD2.0 AlexFilm
Language : Russian
Service kind : Complete Main
Default : Yes
Forced : No

Audio #2
ID : 3
Format : AC-3
Format/Info : Audio Coding 3
Commercial name : Dolby Digital
Codec ID : A_AC3
Duration : 56 min 58 s
Bit rate mode : Constant
Bit rate : 640 kb/s
Channel(s) : 6 channels
Channel layout : L R C LFE Ls Rs
Sampling rate : 48.0 kHz
Frame rate : 31.250 FPS (1536 SPF)
Bit depth : 16 bits
Compression mode : Lossy
Stream size : 261 MiB (10%)
Title : DD5.1 Original
Language : English
Service kind : Complete Main
Default : No
Forced : No

Text #1
ID : 4
Format : UTF-8
Codec ID : S_TEXT/UTF8
Codec ID/Info : UTF-8 Plain Text
Title : Full |FOCS|
Language : Russian
Default : No
Forced : No

Text #2
ID : 5
Format : UTF-8
Codec ID : S_TEXT/UTF8
Codec ID/Info : UTF-8 Plain Text
Title : SDH
Language : English
Default : No
Forced : No
При каждом добавлении создаётся новый торрент. Чтобы начать докачку новой серии, пользователям необходимо сделать следующее:
- остановить скачивание;
- удалить старый торрент у себя из клиента (старые серии удалять не надо);
- скачать новый торрент и запустить его у себя в клиенте вместо старого, при этом указать клиенту путь в старую папку, куда и должно происходить скачивание новых серий.
seedbit.cf



Скачать Бесстыжие через торрент https://b.radikal.ru/b10/1911/dc/a272607eedd2.png Скачать фильм Бесстыжие через торрент бесплантно в хорошем качестве Описание: В новом сезоне Фрэнка ждут неожиданные испытания, справиться с которыми ему поможет только семья. Галлагеры неизменно ... 10 10 2
Торрент: Зарегистрирован [2019-12-03 15:07] · скачан: 12 раз
Статус: √ проверено
Размер: 9.67 GB
Как cкачать? Как скачать Бесстыжие через торрент | qTorrent

% Раздел Тема Автор DL S | L
Зарубежные сериалы [ 3.18 GB ] Бесстыжие / Бесстыдники / Shameless / Сезон: 10 / Серии: 1-4 из 12 [2019 WEB-DLRip] MVO [AlexFilm] bober100 Скачать
8 | 4
Зарубежные сериалы [ 16.89 GB ] Бесстыжие / Бесстыдники / Shameless / Сезон: 10 / Серия: 1-4 из 12 [2019 WEB-DL 1080p] MVO [AlexFilm] bober100 Скачать
4 | 0
Зарубежные сериалы [ 54.15 GB ] Бесстыжие / Бесстыдники / Shameless / Сезон: 9 / Серии: 1-14 из 14 [2018 WEB-DL 1080p] MVO [AlexFilm] bober100 Скачать
2 | 0
Зарубежные сериалы [ 25.49 GB ] Бесстыжие / Бесстыдники / Shameless / Сезон: 9 / Серии: 1-14 из 14 [2018 WEB-DL 720p] MVO [AlexFilm] bober100 Скачать
2 | 1
Зарубежные сериалы [ 9.3 GB ] Бесстыжие / Бесстыдники / Shameless / Сезон: 9 / Серии: 1-14 из 14 [2018 WEB-DLRip] MVO [AlexFilm] bober100 Скачать
7 | 2
Зарубежные сериалы [ 48.24 GB ] Бесстыжие / Бесстыдники / Shameless / Сезон: 6 / Серии: 1-12 из 12 [2016 HDTVRip 1080p] MVO [AlexFilm] bober100 Скачать
1 | 0
Зарубежные сериалы [ 51.6 GB ] Бесстыжие / Бесстыдники / Shameless / Сезон: 7 / Серии: 1-12 из 12 [2016 WEBRip 1080p] MVO [AlexFilm] bober100 Скачать
1 | 0

28-11-2019 20:33  

Отключить всю рекламу на сайте

    Дорогой пользователь! Огромная просьба, поблагодарите релизера, оцените раздачу и оставьте свои комментарий, если Вы скачали Бесстыжие через торрент бесплатно! Внесите свою лепту в развитие PiratBit!
    Комментировать посты могут только пользователи прошедшие не сложную регистрацию
    Показать сообщения:    

    Бесстыжие через торрент
    Скачать бесплатно Бесстыжие
    Бесстыжие скачать торрент
    Бесстыжие смотреть онлайн
    Cкачать фильм Бесстыжие бесплатно
    Бесстыжие скачать торрент в хорошем качестве
    Бесстыжие смотреть онлайн бесплатно в хорошем качестве


    Вы не можете начинать темы
    Вы не можете отвечать на сообщения
    Вы не можете редактировать свои сообщения
    Вы не можете удалять свои сообщения
    Вы не можете голосовать в опросах
    Вы не можете прикреплять файлы к сообщениям
    Вы можете скачивать файлы