Ссылка на приватное зеркало всего за 1$. Внимание количество ограничено!!!

OK

1+1

iTunes

мы

OK

1

WEB-DLRip

Джокер

Пифагор

Ведьмак / The Witcher сериал

Лицензия

ПШазам

ОК

Оно 2

iTunes

30
pack

Вам бонус

ВАЖНО

!!Акция!!

Alien_RageХит недели

RePack

Resident Evil 21

ИГРА 18+

pack

RePack

jed

!!Акция!!

Alien_Rage

RePack

fifa19

RePack

Assassins Creed: Odyssey

RePack

NEED FOR SPEED™ PAYBACK

4 сезон

9 сезон

Бесстыжие 9 сезон

Все сериалы

все сериалы на PB.wtf

RePack

FAR CRY 5
  

Бэтмен: Начало / Batman Begins / Темный рыцарь / The Dark Knight / Темный рыцарь: Возрождение легенды / The Dark Knight Rises (Кристофер Нолан) [2005,2008,2012, фантастика, боевик, триллер, криминал, HDRip-AVC] DUB [Лицензия] IMAX от R.G. PiratFilms seedbit.cf

Бэтмен: Начало через торрент seedbit.cf

Раздают: 2 [ 0 KB/s ]
Размер: 6.53 GB | Добавлен: 5 лет 7 мес. назад | Торрент скачан:1015 раз
Скачать  

15-05-2014 07:17 Бэтмен: Начало Скачать торрент  

Бэтмен: Начало / Batman Begins
«Легенда начинается...»



Год выпуска: 2005
Страна: США, Великобритания
Жанр: боевик, драма, криминал, приключения
Длительность: 02:20:03
Перевод: Профессиональный (Дубляж) [Лицензия]

Режиссер: Кристофер Нолан

В ролях: Кристиан Бэйл, Хит Леджер, Аарон Экхарт, Мэгги Джилленхол, Гари Олдман, Майкл Кейн, Морган Фриман, Чин Хань, Нестор Карбонелл, Эрик Робертс

Описание: В детстве юный наследник огромного состояния Брюс Уэйн оказался свидетелем убийства своих родителей, и тогда он решил бороться с преступностью. Спустя годы он отправляется в путешествие по миру, чтобы найти способ восстановить справедливость. Обучение у мудрого наставника боевым искусствам дает ему силу и смелость. Вернувшись в родной город, Уэйн становится Бэтменом и ведет борьбу со злом.

|

Качество: HDRip-AVC (Rip by Phoenix)
Исходник: BDRip 1080p
Формат: MKV
Видео кодек: H.264
Аудио кодек: AC3
Видео: H.264, 1024*428, 23,976 кадр/сек, 1777 Кбит/сек, 0.169 Бит/(Пиксели*Кадры)
Аудио: AC3, 448 Кбит/сек, 6 каналов, 48,0 КГц

Код:

x264 [info]: frame I:2054  Avg QP:14.16  size: 50644  PSNR Mean Y:49.16 U:51.94 V:53.41 Avg:49.95 Global:49.61
x264 [info]: frame P:49460 Avg QP:16.77  size: 16114  PSNR Mean Y:47.36 U:51.41 V:52.80 Avg:48.23 Global:47.72
x264 [info]: frame B:149951 Avg QP:17.87  size:  6435  PSNR Mean Y:46.72 U:51.26 V:52.66 Avg:47.67 Global:47.10
x264 [info]: consecutive B-frames:  4.6%  4.8% 11.0% 18.3% 17.9% 30.6%  4.9%  4.9%  1.6%  1.4%

Код:

Общее
Уникальный идентификатор                 : 193632604513788419336691961026370299304 (0x91AC487AD531A7FCA83E5379B65765A8)
Полное имя                               : G:\Video\Rip by Phoenix\Бэтмен (Трилогия Кристофера Нолана)\Batman Begins Rip by Phoenix.mkv
Формат                                   : Matroska
Версия формата                           : Version 2
Размер файла                             : 2,18 Гбайт
Продолжительность                        : 2 ч. 20 м.
Общий поток                              : 2226 Кбит/сек
Дата кодирования                         : UTC 2014-06-04 19:10:02
Программа кодирования                    : mkvmerge v6.5.0 ('Isn't she lovely') built on Oct 20 2013 12:50:05
Библиотека кодирования                   : libebml v1.3.0 + libmatroska v1.4.1

Видео
Идентификатор                            : 1
Формат                                   : AVC
Формат/Информация                        : Advanced Video Codec
Профиль формата                          : High@L4.1
Параметр CABAC формата                   : Да
Параметр ReFrames формата                : 12 кадров
Идентификатор кодека                     : V_MPEG4/ISO/AVC
Продолжительность                        : 2 ч. 20 м.
Битрейт                                  : 1777 Кбит/сек
Ширина                                   : 1024 пикселя
Высота                                   : 428 пикселей
Соотношение сторон                       : 2,40:1
Режим частоты кадров                     : Постоянный
Частота кадров                           : 23,976 кадра/сек
Цветовое пространство                    : YUV
Субдискретизация насыщенности            : 4:2:0
Битовая глубина                          : 8 бит
Тип развёртки                            : Прогрессивная
Бит/(Пиксели*Кадры)                      : 0.169
Размер потока                            : 1,70 Гбайт (78%)
Заголовок                                : Rip by Phoenix
Библиотека кодирования                   : x264 core 138 r2358 9e941d1
Настройки программы                      : cabac=1 / ref=12 / deblock=1:-1:-1 / analyse=0x3:0x113 / me=umh / subme=9 / psy=1 / psy_rd=1.00:0.00 / mixed_ref=1 / me_range=32 / chroma_me=1 / trellis=2 / 8x8dct=1 / cqm=0 / deadzone=21,11 / fast_pskip=1 / chroma_qp_offset=-2 / threads=6 / lookahead_threads=1 / sliced_threads=0 / nr=0 / decimate=1 / interlaced=0 / bluray_compat=0 / constrained_intra=0 / bframes=9 / b_pyramid=2 / b_adapt=2 / b_bias=0 / direct=1 / weightb=1 / open_gop=0 / weightp=2 / keyint=240 / keyint_min=23 / scenecut=40 / intra_refresh=0 / rc_lookahead=40 / rc=2pass / mbtree=1 / bitrate=1777 / ratetol=1.0 / qcomp=0.75 / qpmin=0 / qpmax=69 / qpstep=4 / cplxblur=20.0 / qblur=0.5 / ip_ratio=1.40 / aq=1:1.00
Язык                                     : English
Default                                  : Да
Forced                                   : Нет

Аудио
Идентификатор                            : 2
Формат                                   : AC-3
Формат/Информация                        : Audio Coding 3
Расширение режима                        : CM (complete main)
Параметр Endianness формата              : Big
Идентификатор кодека                     : A_AC3
Продолжительность                        : 2 ч. 20 м.
Вид битрейта                             : Постоянный
Битрейт                                  : 448 Кбит/сек
Каналы                                   : 6 каналов
Расположение каналов                     : Front: L C R, Side: L R, LFE
Частота                                  : 48,0 КГц
Битовая глубина                          : 16 бит
Метод сжатия                             : С потерями
Размер потока                            : 449 Мбайт (20%)
Язык                                     : Russian
Default                                  : Да
Forced                                   : Нет

скриншот   скриншот   скриншот  



Темный рыцарь / The Dark Knight
«Добро пожаловать в мир Хаоса!»



Год выпуска: 2008
Страна: США, Великобритания
Жанр: фантастика, боевик, триллер, криминал
Длительность: 02:32:13
Перевод: Профессиональный (Дубляж) [Лицензия]

Режиссер: Кристофер Нолан

В ролях: Кристиан Бэйл, Хит Леджер, Аарон Экхарт, Мэгги Джилленхол, Гари Олдман, Майкл Кейн, Морган Фриман, Чин Хань, Нестор Карбонелл, Эрик Робертс

Описание: Бэтмен поднимает ставки в войне с криминалом. С помощью лейтенанта Джима Гордона и прокурора Харви Дента он намерен очистить улицы от преступности, отравляющей город. Сотрудничество оказывается эффективным, но скоро они обнаружат себя посреди хаоса, развязанного восходящим криминальным гением, известным испуганным горожанам под именем Джокер.

|

Качество: HDRip-AVC (Rip by Phoenix)
Исходник: BDRip 1080p
Формат: MKV
Видео кодек: H.264
Аудио кодек: AC3
Видео: H.264, 1024*576, 23,976 кадр/сек, 1599 Кбит/сек, 0.113 Бит/(Пиксели*Кадры)
Аудио: AC3, 448 Кбит/сек, 6 каналов, 48,0 КГц

Код:

x264 [info]: frame I:1999  Avg QP:14.71  size: 51099  PSNR Mean Y:47.92 U:52.90 V:53.58 Avg:48.97 Global:48.28
x264 [info]: frame P:54864 Avg QP:18.65  size: 15899  PSNR Mean Y:45.64 U:52.63 V:53.26 Avg:46.77 Global:45.88
x264 [info]: frame B:162117 Avg QP:20.10  size:  5247  PSNR Mean Y:45.36 U:52.84 V:53.48 Avg:46.56 Global:45.37
x264 [info]: consecutive B-frames:  3.4%  5.0% 10.5% 33.6% 15.5% 23.6%  4.2%  2.5%  0.7%  0.9%

Код:

Общее
Уникальный идентификатор                 : 198142334085334355987663324100765755854 (0x9510D350777186F18D96D998018529CE)
Полное имя                               : G:\Video\Rip by Phoenix\Бэтмен (Трилогия Кристофера Нолана)\The Dark Knight Rip by Phoenix.mkv
Формат                                   : Matroska
Версия формата                           : Version 2
Размер файла                             : 2,18 Гбайт
Продолжительность                        : 2 ч. 32 м.
Общий поток                              : 2048 Кбит/сек
Дата кодирования                         : UTC 2014-05-17 22:34:03
Программа кодирования                    : mkvmerge v6.5.0 ('Isn't she lovely') built on Oct 20 2013 12:50:05
Библиотека кодирования                   : libebml v1.3.0 + libmatroska v1.4.1

Видео
Идентификатор                            : 1
Формат                                   : AVC
Формат/Информация                        : Advanced Video Codec
Профиль формата                          : High@L4.1
Параметр CABAC формата                   : Да
Параметр ReFrames формата                : 12 кадров
Идентификатор кодека                     : V_MPEG4/ISO/AVC
Продолжительность                        : 2 ч. 32 м.
Битрейт                                  : 1599 Кбит/сек
Ширина                                   : 1024 пикселя
Высота                                   : 576 пикселей
Соотношение сторон                       : 16:9
Режим частоты кадров                     : Постоянный
Частота кадров                           : 23,976 кадра/сек
Цветовое пространство                    : YUV
Субдискретизация насыщенности            : 4:2:0
Битовая глубина                          : 8 бит
Тип развёртки                            : Прогрессивная
Бит/(Пиксели*Кадры)                      : 0.113
Размер потока                            : 1,66 Гбайт (76%)
Заголовок                                : Rip by Phoenix
Библиотека кодирования                   : x264 core 138 r2358 9e941d1
Настройки программы                      : cabac=1 / ref=12 / deblock=1:-1:-1 / analyse=0x3:0x113 / me=umh / subme=9 / psy=1 / psy_rd=1.00:0.00 / mixed_ref=1 / me_range=32 / chroma_me=1 / trellis=2 / 8x8dct=1 / cqm=0 / deadzone=21,11 / fast_pskip=1 / chroma_qp_offset=-2 / threads=6 / lookahead_threads=1 / sliced_threads=0 / nr=0 / decimate=1 / interlaced=0 / bluray_compat=0 / constrained_intra=0 / bframes=9 / b_pyramid=2 / b_adapt=2 / b_bias=0 / direct=1 / weightb=1 / open_gop=0 / weightp=2 / keyint=240 / keyint_min=23 / scenecut=40 / intra_refresh=0 / rc_lookahead=40 / rc=2pass / mbtree=1 / bitrate=1599 / ratetol=1.0 / qcomp=0.75 / qpmin=0 / qpmax=69 / qpstep=4 / cplxblur=20.0 / qblur=0.5 / ip_ratio=1.40 / aq=1:1.00
Язык                                     : English
Default                                  : Да
Forced                                   : Нет

Аудио
Идентификатор                            : 2
Формат                                   : AC-3
Формат/Информация                        : Audio Coding 3
Расширение режима                        : CM (complete main)
Параметр Endianness формата              : Big
Идентификатор кодека                     : A_AC3
Продолжительность                        : 2 ч. 32 м.
Вид битрейта                             : Постоянный
Битрейт                                  : 448 Кбит/сек
Каналы                                   : 6 каналов
Расположение каналов                     : Front: L C R, Side: L R, LFE
Частота                                  : 48,0 КГц
Битовая глубина                          : 16 бит
Метод сжатия                             : С потерями
Размер потока                            : 488 Мбайт (22%)
Язык                                     : Russian
Default                                  : Да
Forced                                   : Нет

скриншот   скриншот   скриншот  скриншот   скриншот   скриншот  



Темный рыцарь: Возрождение легенды / The Dark Knight Rises
«И разгорится пламя»



Год выпуска: 2012
Страна: США, Великобритания
Жанр: фантастика, боевик, триллер, драма, криминал
Длительность: 02:44:33
Перевод: Профессиональный (Дубляж) [Лицензия]

Режиссер: Кристофер Нолан

В ролях: Кристиан Бэйл, Гари Олдман, Том Харди, Джозеф Гордон-Левитт, Энн Хэтэуэй, Марион Котийяр, Морган Фриман, Майкл Кейн, Мэттью Модайн, Алон Абутбул

Описание: Восемь лет назад Бэтмен растворился в ночи, превратившись из героя в беглеца. Приняв на себя вину за смерть прокурора Харви Дента, он пожертвовал всем. Вместе с комиссаром Гордоном они решили, что так будет лучше для всех. Пока преступность была раздавлена антикриминальным актом Дента, ложь действовала.

Тем не менее, еще опаснее становится появление нового врага Бэйна, чье лицо закрыто маской. Он разворачивает в Готэме чудовищную деятельность, и это вынуждает Брюса Уэйна выйти из импровизированного изгнания. Однако даже надев свой костюм, Бэтмен может проиграть Бэйну. Но с появлением хитрой воровки по прозвищу Женщина — Кошка с загадочным прошлым всё меняется.


|

Качество: HDRip-AVC (Rip by Phoenix)
Исходник: BDRip 1080p
Формат: MKV
Видео кодек: H.264
Аудио кодек: AC3
Видео: H.264, 1024*576, 23,976 кадр/сек, 1445 Кбит/сек, 0.102 Бит/(Пиксели*Кадры)
Аудио: AC3, 448 Кбит/сек, 6 каналов, 48,0 КГц

Код:

x264 [info]: frame I:2166  Avg QP:14.07  size: 52059  PSNR Mean Y:49.33 U:52.14 V:52.88 Avg:50.13 Global:49.47
x264 [info]: frame P:54706 Avg QP:17.82  size: 15040  PSNR Mean Y:46.98 U:50.45 V:51.23 Avg:47.90 Global:46.99
x264 [info]: frame B:179841 Avg QP:19.04  size:  4713  PSNR Mean Y:46.91 U:50.85 V:51.71 Avg:47.90 Global:46.73
x264 [info]: consecutive B-frames:  2.8%  4.2%  8.8% 29.8% 12.5% 23.5%  5.7% 10.0%  1.6%  1.1%

Код:

Общее
Уникальный идентификатор                 : 214380476936230596089849857805875836657 (0xA1482D918FE172368838D841591676F1)
Полное имя                               : G:\Video\Rip by Phoenix\Бэтмен (Трилогия Кристофера Нолана)\The Dark Knight Rises Rip by Phoenix.mkv
Формат                                   : Matroska
Версия формата                           : Version 2
Размер файла                             : 2,18 Гбайт
Продолжительность                        : 2 ч. 44 м.
Общий поток                              : 1894 Кбит/сек
Дата кодирования                         : UTC 2014-05-15 07:29:19
Программа кодирования                    : mkvmerge v6.5.0 ('Isn't she lovely') built on Oct 20 2013 12:50:05
Библиотека кодирования                   : libebml v1.3.0 + libmatroska v1.4.1

Видео
Идентификатор                            : 1
Формат                                   : AVC
Формат/Информация                        : Advanced Video Codec
Профиль формата                          : High@L4.1
Параметр CABAC формата                   : Да
Параметр ReFrames формата                : 12 кадров
Идентификатор кодека                     : V_MPEG4/ISO/AVC
Продолжительность                        : 2 ч. 44 м.
Битрейт                                  : 1445 Кбит/сек
Ширина                                   : 1024 пикселя
Высота                                   : 576 пикселей
Соотношение сторон                       : 16:9
Режим частоты кадров                     : Постоянный
Частота кадров                           : 23,976 кадра/сек
Цветовое пространство                    : YUV
Субдискретизация насыщенности            : 4:2:0
Битовая глубина                          : 8 бит
Тип развёртки                            : Прогрессивная
Бит/(Пиксели*Кадры)                      : 0.102
Размер потока                            : 1,62 Гбайт (74%)
Заголовок                                : Rip by Phoenix
Библиотека кодирования                   : x264 core 138 r2358 9e941d1
Настройки программы                      : cabac=1 / ref=12 / deblock=1:-1:-1 / analyse=0x3:0x113 / me=umh / subme=9 / psy=1 / psy_rd=1.00:0.00 / mixed_ref=1 / me_range=32 / chroma_me=1 / trellis=2 / 8x8dct=1 / cqm=0 / deadzone=21,11 / fast_pskip=1 / chroma_qp_offset=-2 / threads=6 / lookahead_threads=1 / sliced_threads=0 / nr=0 / decimate=1 / interlaced=0 / bluray_compat=0 / constrained_intra=0 / bframes=9 / b_pyramid=2 / b_adapt=2 / b_bias=0 / direct=1 / weightb=1 / open_gop=0 / weightp=2 / keyint=240 / keyint_min=23 / scenecut=40 / intra_refresh=0 / rc_lookahead=40 / rc=2pass / mbtree=1 / bitrate=1445 / ratetol=1.0 / qcomp=0.75 / qpmin=0 / qpmax=69 / qpstep=4 / cplxblur=20.0 / qblur=0.5 / ip_ratio=1.40 / aq=1:1.00
Язык                                     : English
Default                                  : Да
Forced                                   : Нет

Аудио
Идентификатор                            : 2
Формат                                   : AC-3
Формат/Информация                        : Audio Coding 3
Расширение режима                        : CM (complete main)
Параметр Endianness формата              : Big
Идентификатор кодека                     : A_AC3
Продолжительность                        : 2 ч. 44 м.
Вид битрейта                             : Постоянный
Битрейт                                  : 448 Кбит/сек
Каналы                                   : 6 каналов
Расположение каналов                     : Front: L C R, Side: L R, LFE
Частота                                  : 48,0 КГц
Битовая глубина                          : 16 бит
Метод сжатия                             : С потерями
Размер потока                            : 527 Мбайт (24%)
Язык                                     : Russian
Default                                  : Да
Forced                                   : Нет

скриншот   скриншот   скриншот  скриншот   скриншот   скриншот  
seedbit.cf



Скачать Бэтмен: Начало через торрент http://pic.kartinco.top/new/img/2014-06/04/62a74q7mg5g4y5sy0ncdhl91a.png Скачать фильм Бэтмен: Начало через торрент бесплантно в хорошем качестве Описание: В детстве юный наследник огромного состояния Брюс Уэйн оказался свидетелем убийства своих родителей, и тогда он решил бороться с ... 10 10 46
Info! Золотая раздача, скачанное не засчитывается.
Торрент: Зарегистрирован [2014-06-04 18:53] · скачан: 1 015 раз
Статус: √ проверено
Размер: 6.53 GB
Как cкачать? Как скачать Бэтмен: Начало через торрент | qTorrent



Последний раз редактировалось: Phoenix (2014-06-04 18:53), всего редактировалось 4 раз(а)

28-11-2019 20:33  

Отключить всю рекламу на сайте

15-05-2014 07:21 Бэтмен: Начало Скачать торрент  

Пока только один фильм из Трилогии Нолана
1ю и 2ю части добавлю как только будут готовыseedbit.cf



18-05-2014 03:58 Бэтмен: Начало Скачать торрент  

Добавил 2ю частьseedbit.cf



18-05-2014 06:33 Бэтмен: Начало Скачать торрент  

Отличная раздача.seedbit.cf



18-05-2014 06:51 Бэтмен: Начало Скачать торрент  

Беллик писал(а):

Отличная раздача.

Жаль,что не в моём вкусе
seedbit.cf



20-05-2014 11:06 Бэтмен: Начало Скачать торрент  

Спасибо за релиз!!! Жду 1ю часть :сonn:seedbit.cf



21-05-2014 12:21 Бэтмен: Начало Скачать торрент  

Когда будет 1 часть?seedbit.cf



18-10-2014 20:35 Бэтмен: Начало Скачать торрент  

seedbit.cf



12-03-2016 13:17 Бэтмен: Начало Скачать торрент  

дайте скоростиseedbit.cf



04-04-2018 16:17 Бэтмен: Начало Скачать торрент  

Отличная трилогия Нолана, жаль что конец был третьим фильмом, могли бы придумать типа какой то еще части о возвращении бэтмена и чтобы он был с робином там не знаю)seedbit.cf



18-12-2018 11:25 Бэтмен: Начало Скачать торрент  

Исправьте актёрский состав первой частиseedbit.cf



15-02-2019 13:48 Бэтмен: Начало Скачать торрент  

Есть косяк в актёрском составе в первой части! Как вы забыли про Лиама Нисона? А Хит Леджер не играл в первой части!seedbit.cf



13-10-2019 20:04 Бэтмен: Начало Скачать торрент  

Спасибо)seedbit.cf



    Дорогой пользователь! Огромная просьба, поблагодарите релизера, оцените раздачу и оставьте свои комментарий, если Вы скачали Бэтмен: Начало через торрент бесплатно! Внесите свою лепту в развитие PiratBit!
    Комментировать посты могут только пользователи прошедшие не сложную регистрацию
    Показать сообщения:    

    Бэтмен: Начало через торрент
    Скачать бесплатно Бэтмен: Начало
    Бэтмен: Начало скачать торрент
    Бэтмен: Начало смотреть онлайн
    Cкачать фильм Бэтмен: Начало бесплатно
    Бэтмен: Начало скачать торрент в хорошем качестве
    Бэтмен: Начало смотреть онлайн бесплатно в хорошем качестве


    Вы не можете начинать темы
    Вы не можете отвечать на сообщения
    Вы не можете редактировать свои сообщения
    Вы не можете удалять свои сообщения
    Вы не можете голосовать в опросах
    Вы не можете прикреплять файлы к сообщениям
    Вы можете скачивать файлы